[2016] [欧美] [悬疑] [x264-720P] 猎鸟 Birdshot.2016.720p.BluRay.x264-BiPOLAR 2.56 GB

uump4 1月前

悠悠MP4_MP4电影下载_猎鸟 Birdshot.2016.720p.BluRay.x264-BiPOLAR 2.56 GB

◎片  名 猎鸟 Birdshot
◎年  代 2016
◎产  地 菲律宾 / 卡塔尔
◎类  别 剧情 / 悬疑 / 惊悚
◎语  言 菲律宾语
◎上映日期 2016-10-28(东京电影节)
◎IMDb评分  6.6/10 from 793 users
◎IMDb链接  https://www.imdb.com/title/tt6135042/
◎豆瓣评分 6.5/10 from 498 users
◎豆瓣链接 https://movie.douban.com/subject/26882157/
◎片  长 125分钟
◎导  演 米哈伊尔·瑞德 Mikhail Red
◎编  剧 米哈伊尔·瑞德 Mikhail Red
◎主  演 玛丽·乔伊·阿波斯托 Mary Joy Apostol
       约翰·阿基拉 John Arcilla
       阿诺德雷·耶斯 Arnold Reyes

◎简  介

  该片的导演是年仅24岁米哈伊尔·雷德,影片讲述了一个农夫的女儿误杀了一直濒临灭绝的菲律宾鹰,却把当地政府对盗猎者的调查与追捕引导到了一个更加恐怖的故事。

◎获奖情况

  第29届东京国际电影节 (2016)
  亚洲未来单元 最佳影片
  米哈伊尔·瑞德



Video
ID           : 1
Format       : AVC
Format/Info      : Advanced Video Codec
Format profile       : [email protected]
Format settings      : CABAC / 12 Ref Frames
Format settings, CABAC       : Yes
Format settings, Reference frames    : 12 frames
Codec ID         : V_MPEG4/ISO/AVC
Duration         : 1 h 55 min
Bit rate         : 2 517 kb/s
Width        : 1 280 pixels
Height       : 540 pixels
Display aspect ratio     : 2.40:1
Frame rate mode      : Constant
Frame rate       : 23.976 (24000/1001) FPS
Color space      : YUV
Chroma subsampling       : 4:2:0
Bit depth        : 8 bits
Scan type        : Progressive
Bits/(Pixel*Frame)       : 0.152
Stream size      : 2.04 GiB (80%)
Writing library      : x264 core 164 r3095 baee400
Encoding settings        : cabac=1 / ref=12 / deblock=1:-3:-3 / analyse=0x3:0x133 / me=umh / subme=10 / psy=1 / psy_rd=1.00:0.15 / mixed_ref=1 / me_range=24 / chroma_me=1 / trellis=2 / 8x8dct=1 / cqm=0 / deadzone=21,11 / fast_pskip=1 / chroma_qp_offset=-3 / threads=17 / lookahead_threads=2 / sliced_threads=0 / nr=0 / decimate=1 / interlaced=0 / bluray_compat=0 / constrained_intra=0 / bframes=8 / b_pyramid=2 / b_adapt=2 / b_bias=0 / direct=3 / weightb=1 / open_gop=0 / weightp=2 / keyint=250 / keyint_min=23 / scenecut=40 / intra_refresh=0 / rc_lookahead=60 / rc=crf / mbtree=1 / crf=16.0 / qcomp=0.60 / qpmin=0 / qpmax=69 / qpstep=4 / ip_ratio=1.40 / aq=3:0.60
Language         : English
Default          : Yes
Forced       : No
Color range      : Limited
Matrix coefficients      : BT.709

Audio
ID           : 2
Format       : AC-3
Format/Info      : Audio Coding 3
Commercial name      : Dolby Digital
Codec ID         : A_AC3
Duration         : 1 h 55 min
Bit rate mode        : Constant
Bit rate         : 640 kb/s
Channel(s)       : 6 channels
Channel layout       : L R C LFE Ls Rs
Sampling rate        : 48.0 kHz
Frame rate       : 31.250 FPS (1536 SPF)
Compression mode     : Lossy
Stream size      : 531 MiB (20%)
Language         : Tagalog
Service kind         : Complete Main
Default          : Yes
Forced       : No

Text #1
ID           : 3
Format       : UTF-8
Codec ID         : S_TEXT/UTF8
Codec ID/Info        : UTF-8 Plain Text
Duration         : 1 h 41 min
Bit rate         : 30 b/s
Count of elements        : 775
Stream size      : 23.0 KiB (0%)
Title        : English
Language         : English
Default          : Yes
Forced       : Yes

Text #2
ID           : 4
Format       : UTF-8
Codec ID         : S_TEXT/UTF8
Codec ID/Info        : UTF-8 Plain Text
Duration         : 1 h 41 min
Bit rate         : 34 b/s
Count of elements        : 831
Stream size      : 25.4 KiB (0%)
Title        : Filipino
Language         : fil
Default          : No
Forced       : No

Text #3
ID           : 5
Format       : UTF-8
Codec ID         : S_TEXT/UTF8
Codec ID/Info        : UTF-8 Plain Text
Duration         : 1 h 49 min
Bit rate         : 29 b/s
Count of elements        : 819
Stream size      : 24.0 KiB (0%)
Title        : French
Language         : French
Default          : No
Forced       : No

Text #4
ID           : 6
Format       : PGS
Muxing mode      : zlib
Codec ID         : S_HDMV/PGS
Codec ID/Info        : Picture based subtitle format used on BDs/HD-DVDs
Duration         : 1 h 49 min
Bit rate         : 6 413 b/s
Count of elements        : 1474
Stream size      : 5.03 MiB (0%)
Title        : French
Language         : French
Default          : No
Forced       : No

Text #5
ID           : 7
Format       : UTF-8
Codec ID         : S_TEXT/UTF8
Codec ID/Info        : UTF-8 Plain Text
Duration         : 1 h 48 min
Bit rate         : 29 b/s
Count of elements        : 789
Stream size      : 23.1 KiB (0%)
Title        : Spanish
Language         : Spanish
Default          : No
Forced       : No

Menu
00:00:00.000         : en:00:00:00.000
00:07:55.266         : en:00:07:55.266
00:16:20.813         : en:00:16:20.813
00:28:34.922         : en:00:28:34.922
00:38:16.002         : en:00:38:16.002
00:46:00.883         : en:00:46:00.883
00:52:55.923         : en:00:52:55.923
01:01:58.673         : en:01:01:58.673
01:13:11.971         : en:01:13:11.971
01:20:58.812         : en:01:20:58.812
01:28:29.387         : en:01:28:29.387
01:41:45.683         : en:01:41:45.683
01:48:33.048         : en:01:48:33.048



Screenshots:
悠悠MP4_MP4电影下载_猎鸟 Birdshot.2016.720p.BluRay.x264-BiPOLAR 2.56 GB
Birdshot.2016.720p.BluRay.x264-BiPOLAR

Video...: 1280x540 2517kb/s @ crf16.0 23.976fps
Audio...: Tagalog 640kb/s 6ch AC-3
SRT Subs: English, Filipino, French, Spanish
PGS Subs: French
Size....: 2624.18mb (2751655422bytes)
Runtime.: 1h 55mn
IMDb....: https://www.imdb.com/title/tt6135042

Source Bitrate: 30017kb/s

English, Filipino and Spanish subs from Netflix, everything else from FR BD.

磁力链接

magnet:?xt=urn:btih:42534cf11b94d5fc9bf09e6a66e9ab86af768cbb

上传的附件:
最新回复 (0)
返回
本站所有资源均收集自互联网,没有提供影片资源存储, 也未参与录制、上传,若本站收录的资源无意侵犯了您的权益, 请联系邮箱:gogoimgs#gmail.com(#[email protected])