[2016] [欧美] [剧情] [x265-1080P] 阿尔塔米拉 Altamira.2016.1080p.BluRay.x265-RARBG 1.46 GB

uump4 1月前

悠悠MP4_MP4电影下载_阿尔塔米拉 Altamira.2016.1080p.BluRay.x265-RARBG 1.46 GB

◎片  名 阿尔塔米拉 Finding Altamira / The Master of Altamira / 寻找阿尔塔米拉
◎年  代 2016
◎产  地 西班牙
◎类  别 剧情
◎语  言 英语
◎上映日期 2016-04-01(西班牙)
◎IMDb评分  5.9/10 from 2800 users
◎IMDb链接  https://www.imdb.com/title/tt3014910/
◎豆瓣评分 7.3/10 from 142 users
◎豆瓣链接 https://movie.douban.com/subject/26306931/
◎片  长 97分钟
◎导  演 休·赫德森 Hugh Hudson
◎编  剧 奥莉薇亚·黑特理德 Olivia Hetreed
       何塞·路易斯·洛佩斯-利纳雷斯 José Luis López-Linares
◎主  演 安东尼奥·班德拉斯 Antonio Banderas
       克莱门特·史鲍尼 Clément Sibony
       鲁伯特·艾弗雷特 Rupert Everett
       Javivi Javivi
       伊琳娜·埃斯柯拉 Irene Escolar
       皮埃尔·尼内 Pierre Niney
       尼古拉斯·法瑞尔 Nicholas Farrell
       路易斯·索莱尔 Lluís Soler
       格什菲·法拉哈尼 Golshifteh Farahani
       亨利·古德曼 Henry Goodman
       玛瑞亚·达波 Maryam d'Abo
       特里斯坦·乌罗阿 Tristán Ulloa
       Javier Laorden Javier Laorden

◎简  介

  Marcelino Sanz de Sautuola y de la Pedrueca, in 1868, accidentally discovered Paleolithic paintings with the help of a hunter named Modesto Cubillas inside Altamira's caves, located in Cantabria, north to Spain. Trying to expose their discovery to the academic world for that they study the paintings, Sautuola crashed against the skepticism and discredit of all experts, who claimed that the caves were false and the paintings made for the own Sautuola, in a effort to get rich. Looking for the truth, Sautuola was the rest of his life fighting to prove that those paintings were real, trying to restore his innocence from the accusations of falsehood launched against him.



Video
ID           : 1
Format       : HEVC
Format/Info      : High Efficiency Video Coding
Format profile       : Main [email protected]@Main
Codec ID         : hev1
Codec ID/Info        : High Efficiency Video Coding
Duration         : 1 h 33 min
Bit rate         : 1 999 kb/s
Width        : 1 920 pixels
Height       : 1 080 pixels
Display aspect ratio     : 16:9
Frame rate mode      : Constant
Frame rate       : 24.000 FPS
Color space      : YUV
Chroma subsampling       : 4:2:0
Bit depth        : 10 bits
Bits/(Pixel*Frame)       : 0.040
Stream size      : 1.31 GiB (90%)
Writing library      : x265 3.3+4-rarbg-30eb4de83092:[Linux][GCC 8.3.1][64 bit] 10bit
Encoding settings        : cpuid=1111039 / frame-threads=4 / wpp / no-pmode / no-pme / no-psnr / no-ssim / log-level=2 / input-csp=1 / input-res=1920x1080 / interlace=0 / total-frames=0 / level-idc=0 / high-tier=1 / uhd-bd=0 / ref=4 / no-allow-non-conformance / no-repeat-headers / annexb / no-aud / no-hrd / info / hash=0 / no-temporal-layers / open-gop / min-keyint=24 / keyint=250 / gop-lookahead=0 / bframes=4 / b-adapt=2 / b-pyramid / bframe-bias=0 / rc-lookahead=25 / lookahead-slices=4 / scenecut=40 / hist-scenecut=0 / radl=0 / no-splice / no-intra-refresh / ctu=64 / min-cu-size=8 / rect / no-amp / max-tu-size=32 / tu-inter-depth=1 / tu-intra-depth=1 / limit-tu=0 / rdoq-level=2 / dynamic-rd=0.00 / no-ssim-rd / signhide / no-tskip / nr-intra=0 / nr-inter=0 / no-constrained-intra / strong-intra-smoothing / max-merge=3 / limit-refs=3 / limit-modes / me=3 / subme=3 / merange=57 / temporal-mvp / no-frame-dup / no-hme / weightp / no-weightb / no-analyze-src-pics / deblock=0:0 / no-sao / no-sao-non-deblock / rd=4 / selective-sao=0 / no-early-skip / rskip / no-fast-intra / no-tskip-fast / no-cu-lossless / no-b-intra / no-splitrd-skip / rdpenalty=0 / psy-rd=2.00 / psy-rdoq=1.00 / no-rd-refine / no-lossless / cbqpoffs=0 / crqpoffs=0 / rc=abr / bitrate=2000 / qcomp=0.60 / qpstep=4 / stats-write=0 / stats-read=2 / cplxblur=20.0 / qblur=0.5 / ipratio=1.40 / pbratio=1.30 / aq-mode=3 / aq-strength=1.00 / cutree / zone-count=0 / no-strict-cbr / qg-size=32 / no-rc-grain / qpmax=69 / qpmin=0 / no-const-vbv / sar=1 / overscan=0 / videoformat=5 / range=0 / colorprim=2 / transfer=2 / colormatrix=2 / chromaloc=0 / display-window=0 / cll=0,0 / min-luma=0 / max-luma=1023 / log2-max-poc-lsb=8 / vui-timing-info / vui-hrd-info / slices=1 / no-opt-qp-pps / no-opt-ref-list-length-pps / no-multi-pass-opt-rps / scenecut-bias=0.05 / hist-threshold=0.01 / no-opt-cu-delta-qp / no-aq-motion / no-hdr10 / no-hdr10-opt / no-dhdr10-opt / no-idr-recovery-sei / analysis-reuse-level=0 / analysis-save-reuse-level=0 / analysis-load-reuse-level=0 / scale-factor=0 / refine-intra=0 / refine-inter=0 / refine-mv=1 / refine-ctu-distortion=0 / no-limit-sao / ctu-info=0 / no-lowpass-dct / refine-analysis-type=0 / copy-pic=1 / max-ausize-factor=1.0 / no-dynamic-refine / no-single-sei / no-hevc-aq / no-svt / no-field / qp-adaptation-range=1.00 / no-scenecut-aware-qpconformance-window-offsets / right=0 / bottom=0
Encoded date         : UTC 2022-06-28 15:44:27
Tagged date      : UTC 2022-06-28 15:44:27
Codec configuration box      : hvcC

Audio
ID           : 2
Format       : AAC LC
Format/Info      : Advanced Audio Codec Low Complexity
Codec ID         : mp4a-40-2
Duration         : 1 h 33 min
Bit rate mode        : Constant
Bit rate         : 224 kb/s
Channel(s)       : 6 channels
Channel layout       : C L R Ls Rs LFE
Sampling rate        : 48.0 kHz
Frame rate       : 46.875 FPS (1024 SPF)
Compression mode     : Lossy
Stream size      : 150 MiB (10%)
Language         : English
Default          : Yes
Alternate group      : 1
Encoded date         : UTC 2022-06-28 15:44:27
Tagged date      : UTC 2022-06-28 15:44:27



悠悠MP4_MP4电影下载_阿尔塔米拉 Altamira.2016.1080p.BluRay.x265-RARBG 1.46 GB
悠悠MP4_MP4电影下载_阿尔塔米拉 Altamira.2016.1080p.BluRay.x265-RARBG 1.46 GB
悠悠MP4_MP4电影下载_阿尔塔米拉 Altamira.2016.1080p.BluRay.x265-RARBG 1.46 GB

磁力链接

magnet:?xt=urn:btih:b1f10e1ff897c6cfa6d427bf1c43129fc5e94db0

上传的附件:
最新回复 (0)
返回
本站所有资源均收集自互联网,没有提供影片资源存储, 也未参与录制、上传,若本站收录的资源无意侵犯了您的权益, 请联系邮箱:gogoimgs#gmail.com(#[email protected])