[2017] [欧美] [历史] [x264-1080P] 和解 The.Reconciliation.2017.POLISH.1080p.NF.WEBRip.DDP5.1.x264-WELP 2.39 GB

uump4 6天前

悠悠MP4_MP4电影下载_和解 The.Reconciliation.2017.POLISH.1080p.NF.WEBRip.DDP5.1.x264-WELP 2.39 GB

◎片  名 和解 Reconciliation / ZGODA
◎年  代 2017
◎产  地 波兰
◎类  别 剧情 / 历史 / 战争
◎语  言 波兰语
◎上映日期 2017-09-01(蒙特利尔电影节) / 2017-10-13(波兰)
◎IMDb评分  5.4/10 from 205 users
◎IMDb链接  https://www.imdb.com/title/tt7411828/
◎豆瓣评分 /10 from 0 users
◎豆瓣链接 https://movie.douban.com/subject/27125528/
◎片  长 87分钟
◎导  演 马西耶·索比埃斯琴斯基 Maciej Sobieszczanski
◎编  剧 
◎主  演 索菲亚·威奇拉克斯 Zofia Wichlacz
       雅酷朴·盖尔秀 Jakub Gierszal
       达努塔·斯腾卡 Danuta Stenka
       托马·舍夫斯基 Pawel Tomaszewski
       沃伊切赫·齐林斯基 Wojciech Zielinski
       托马什·萨普里克 Tomasz Sapryk
       亚采克·贝勒 Jacek Beler
       玛利亚·德布斯卡 Maria Debska

◎简  介

  1945年波兰人民军在原德国集中营中关押德国战俘与阶级敌人,一名新参军的看守爱上了关押在其中的波兰女孩,受其影响最终走向了新生

◎获奖情况

  第41届蒙特利尔世界电影节 (2017)
  美洲大奖(提名)
  马西耶·索比埃斯琴斯基最佳导演
  马西耶·索比埃斯琴斯基



Video
ID           : 1
Format       : AVC
Format/Info      : Advanced Video Codec
Format profile       : [email protected]
Format settings      : CABAC / 3 Ref Frames
Format settings, CABAC       : Yes
Format settings, Reference frames    : 3 frames
Codec ID         : V_MPEG4/ISO/AVC
Duration         : 1 h 26 min
Bit rate mode        : Variable
Bit rate         : 3 320 kb/s
Maximum bit rate     : 4 980 kb/s
Width        : 1 920 pixels
Height       : 1 080 pixels
Display aspect ratio     : 16:9
Frame rate mode      : Constant
Frame rate       : 24.000 FPS
Color space      : YUV
Chroma subsampling       : 4:2:0
Bit depth        : 8 bits
Scan type        : Progressive
Bits/(Pixel*Frame)       : 0.067
Stream size      : 2.00 GiB (84%)
Writing library      : x264 core 148 r2715 7e75228
Encoding settings        : cabac=1 / ref=3 / deblock=1:0:0 / analyse=0x1:0x111 / me=umh / subme=10 / psy=1 / psy_rd=1.00:0.00 / mixed_ref=1 / me_range=24 / chroma_me=1 / trellis=2 / 8x8dct=0 / cqm=0 / deadzone=21,11 / fast_pskip=1 / chroma_qp_offset=-2 / threads=6 / lookahead_threads=1 / sliced_threads=0 / nr=0 / decimate=1 / interlaced=0 / bluray_compat=0 / stitchable=1 / constrained_intra=0 / bframes=2 / b_pyramid=0 / b_adapt=2 / b_bias=0 / direct=3 / weightb=1 / open_gop=0 / weightp=2 / keyint=250 / keyint_min=24 / scenecut=0 / intra_refresh=0 / rc_lookahead=48 / rc=2pass / mbtree=1 / bitrate=3320 / ratetol=1.0 / qcomp=0.50 / qpmin=6 / qpmax=51 / qpstep=4 / cplxblur=20.0 / qblur=0.5 / vbv_maxrate=4980 / vbv_bufsize=6640 / nal_hrd=vbr / filler=0 / ip_ratio=1.40 / aq=1:1.00
Default          : Yes
Forced       : No

Audio
ID           : 2
Format       : E-AC-3
Format/Info      : Enhanced AC-3
Commercial name      : Dolby Digital Plus
Codec ID         : A_EAC3
Duration         : 1 h 26 min
Bit rate mode        : Constant
Bit rate         : 640 kb/s
Channel(s)       : 6 channels
Channel layout       : L R C LFE Ls Rs
Sampling rate        : 48.0 kHz
Frame rate       : 31.250 FPS (1536 SPF)
Compression mode     : Lossy
Stream size      : 395 MiB (16%)
Language         : Polish
Service kind         : Complete Main
Default          : Yes
Forced       : No

Text #1
ID           : 3
Format       : UTF-8
Codec ID         : S_TEXT/UTF8
Codec ID/Info        : UTF-8 Plain Text
Duration         : 1 h 4 min
Bit rate         : 3 b/s
Count of elements        : 83
Stream size      : 1.57 KiB (0%)
Title        : Forced
Language         : Polish
Default          : Yes
Forced       : Yes

Text #2
ID           : 4
Format       : UTF-8
Codec ID         : S_TEXT/UTF8
Codec ID/Info        : UTF-8 Plain Text
Duration         : 1 h 13 min
Bit rate         : 11 b/s
Count of elements        : 296
Stream size      : 6.11 KiB (0%)
Language         : Polish
Default          : No
Forced       : No

Text #3
ID           : 5
Format       : UTF-8
Codec ID         : S_TEXT/UTF8
Codec ID/Info        : UTF-8 Plain Text
Duration         : 1 h 13 min
Bit rate         : 11 b/s
Count of elements        : 297
Stream size      : 6.19 KiB (0%)
Language         : Polish
Default          : No
Forced       : No

Text #4
ID           : 6
Format       : UTF-8
Codec ID         : S_TEXT/UTF8
Codec ID/Info        : UTF-8 Plain Text
Duration         : 1 h 21 min
Bit rate         : 12 b/s
Count of elements        : 322
Stream size      : 7.34 KiB (0%)
Title        : SDH
Language         : Polish
Default          : No
Forced       : No

Text #5
ID           : 7
Format       : UTF-8
Codec ID         : S_TEXT/UTF8
Codec ID/Info        : UTF-8 Plain Text
Duration         : 1 h 14 min
Bit rate         : 11 b/s
Count of elements        : 325
Stream size      : 6.52 KiB (0%)
Language         : English
Default          : No
Forced       : No

Menu
00:00:00.000         : en:Chapter 1
01:22:41.000         : en:Credits



悠悠MP4_MP4电影下载_和解 The.Reconciliation.2017.POLISH.1080p.NF.WEBRip.DDP5.1.x264-WELP 2.39 GB
悠悠MP4_MP4电影下载_和解 The.Reconciliation.2017.POLISH.1080p.NF.WEBRip.DDP5.1.x264-WELP 2.39 GB
悠悠MP4_MP4电影下载_和解 The.Reconciliation.2017.POLISH.1080p.NF.WEBRip.DDP5.1.x264-WELP 2.39 GB

磁力链接

magnet:?xt=urn:btih:241236290d8faaa0a8dcc136cd939f2a06486718

上传的附件:
最新回复 (0)
返回
本站所有资源均收集自互联网,没有提供影片资源存储, 也未参与录制、上传,若本站收录的资源无意侵犯了您的权益, 请联系邮箱:gogoimgs#gmail.com(#[email protected])