[2011] [欧美] [纪录] [x264-1080P] Mosca Mosca.2011.SPANISH.1080p.WEBRip.AAC2.0.x264-KUCHU 3.98 GB

uump4 6天前

悠悠MP4_MP4电影下载_Mosca Mosca.2011.SPANISH.1080p.WEBRip.AAC2.0.x264-KUCHU 3.98 GB

◎片  名 Mosca
◎年  代 2011
◎产  地 墨西哥
◎类  别 纪录片
◎语  言 
◎上映日期 
◎IMDb评分  5.0/10 from 17 users
◎IMDb链接  https://www.imdb.com/title/tt1937253/
◎豆瓣评分 /10 from 0 users
◎豆瓣链接 https://movie.douban.com/subject/35805876/
◎片  长 
◎导  演 
◎编  剧 
◎主  演 

◎简  介

  Mosca is a night shift cab driver, a widower and father of two girls. Between his daily job and the memories of his wife, he tries to figure out his role as a father. Mosca mixes sleep and vigil to put up with her loss. MOSCA is the tale of disenchantment of a whole generation; it's also, and above all, an unusual and powerful love story.



Video
ID        : 1
Format       : AVC
Format/Info      : Advanced Video Codec
Format profile      : [email protected]
Format settings      : CABAC / 4 Ref Frames
Format settings, CABAC    : Yes
Format settings, Reference frames  : 4 frames
Format settings, GOP     : M=6, N=46
Codec ID       : V_MPEG4/ISO/AVC
Duration       : 1 h 37 min
Bit rate       : 5 872 kb/s
Width        : 1 920 pixels
Height       : 1 080 pixels
Display aspect ratio     : 16:9
Frame rate mode      : Constant
Frame rate       : 23.976 (24000/1001) FPS
Color space      : YUV
Chroma subsampling     : 4:2:0
Bit depth       : 8 bits
Scan type       : Progressive
Bits/(Pixel*Frame)     : 0.118
Stream size      : 3.89 GiB (98%)
Writing library      : x264 core 155 r2917 0a84d98
Encoding settings     : cabac=1 / ref=3 / deblock=1:-1:-1 / analyse=0x3:0x113 / me=hex / subme=8 / psy=1 / psy_rd=1.00:0.15 / mixed_ref=1 / me_range=16 / chroma_me=1 / trellis=2 / 8x8dct=1 / cqm=0 / deadzone=21,11 / fast_pskip=1 / chroma_qp_offset=-3 / threads=24 / lookahead_threads=4 / sliced_threads=0 / nr=0 / decimate=1 / interlaced=0 / bluray_compat=0 / constrained_intra=0 / bframes=5 / b_pyramid=2 / b_adapt=1 / b_bias=0 / direct=3 / weightb=1 / open_gop=0 / weightp=2 / keyint=46 / keyint_min=24 / scenecut=0 / intra_refresh=0 / rc_lookahead=50 / rc=abr / mbtree=1 / bitrate=5872 / ratetol=1.0 / qcomp=0.60 / qpmin=0 / qpmax=69 / qpstep=4 / vbv_maxrate=9000 / vbv_bufsize=27000 / nal_hrd=none / filler=0 / ip_ratio=1.40 / aq=1:1.00
Language       : Spanish
Default       : Yes
Forced       : No

Audio
ID        : 2
Format       : AAC LC
Format/Info      : Advanced Audio Codec Low Complexity
Codec ID       : A_AAC-2
Duration       : 1 h 37 min
Bit rate       : 128 kb/s
Channel(s)       : 2 channels
Channel layout      : L R
Sampling rate      : 48.0 kHz
Frame rate       : 46.875 FPS (1024 SPF)
Compression mode     : Lossy
Stream size      : 89.7 MiB (2%)
Language       : Spanish
Default       : Yes
Forced       : No

Text #1
ID        : 3
Format       : UTF-8
Codec ID       : S_TEXT/UTF8
Codec ID/Info      : UTF-8 Plain Text
Duration       : 1 h 31 min
Bit rate       : 41 b/s
Count of elements     : 620
Stream size      : 28.1 KiB (0%)
Language       : English
Default       : Yes
Forced       : No

Text #2
ID        : 4
Format       : UTF-8
Codec ID       : S_TEXT/UTF8
Codec ID/Info      : UTF-8 Plain Text
Duration       : 1 h 33 min
Bit rate       : 41 b/s
Count of elements     : 647
Stream size      : 28.0 KiB (0%)
Language       : Portuguese
Default       : No
Forced       : No

Text #3
ID        : 5
Format       : UTF-8
Codec ID       : S_TEXT/UTF8
Codec ID/Info      : UTF-8 Plain Text
Duration       : 1 h 32 min
Bit rate       : 40 b/s
Count of elements     : 715
Stream size      : 27.3 KiB (0%)
Language       : Turkish
Default       : No
Forced       : No


悠悠MP4_MP4电影下载_Mosca Mosca.2011.SPANISH.1080p.WEBRip.AAC2.0.x264-KUCHU 3.98 GB
悠悠MP4_MP4电影下载_Mosca Mosca.2011.SPANISH.1080p.WEBRip.AAC2.0.x264-KUCHU 3.98 GB
悠悠MP4_MP4电影下载_Mosca Mosca.2011.SPANISH.1080p.WEBRip.AAC2.0.x264-KUCHU 3.98 GB

磁力链接

magnet:?xt=urn:btih:6eae870b3327b8941924cc01aaea237acbeeb0f3
上传的附件:
最新回复 (0)
返回
本站所有资源均收集自互联网,没有提供影片资源存储, 也未参与录制、上传,若本站收录的资源无意侵犯了您的权益, 请联系邮箱:gogoimgs#gmail.com(#[email protected])