[2016] [欧美] [喜剧] [x264-1080P] 唐纳德哭了 Donald.Cried.2016.1080p.AMZN.WEBRip.DDP5.1.x264-CBON 6.51 GB

uump4 6天前

悠悠MP4_MP4电影下载_唐纳德哭了 Donald.Cried.2016.1080p.AMZN.WEBRip.DDP5.1.x264-CBON 6.51 GB

◎片  名 唐纳德哭了 Donald Cried
◎年  代 2016
◎产  地 美国
◎类  别 剧情 / 喜剧
◎语  言 英语
◎上映日期 2016
◎IMDb评分  6.5/10 from 1304 users
◎IMDb链接  https://www.imdb.com/title/tt4442604/
◎豆瓣评分 /10 from 0 users
◎豆瓣链接 https://movie.douban.com/subject/26759813/
◎片  长 85分钟
◎导  演 克里斯·阿韦迪西安 Kris Avedisian
◎编  剧 克里斯·阿韦迪西安 Kris Avedisian
       凯尔·埃斯佩塔 Kyle Espeleta
       杰西·韦克曼 Jesse Wakeman
◎主  演 杰西·韦克曼 Jesse Wakeman
       路易莎·克劳瑟 Louisa Krause
       特德·阿尔奇迪 Ted Arcidi
       克里斯·阿韦迪西安 Kris Avedisian
       凯尔·埃斯佩塔 Kyle Espeleta
       凯特·菲茨杰拉德 Kate Fitzgerald

◎简  介

  With sudden passing of his grandmother, Peter Latang returns to his hometown and encounters his long lost, childhood friend, Donald Treebeck. What begins as a simple favor, turns into a long day's journey into the past.

◎获奖情况

  第69届洛迦诺国际电影节 (2016)
  当代电影人单元金豹奖(提名)
  克里斯·阿韦迪西安

  第33届美国独立精神奖 (2018)
  最佳处女作剧本(提名)
  克里斯·阿韦迪西安 / 凯尔·埃斯佩塔 / 杰西·韦克曼



Video
ID           : 1
Format       : AVC
Format/Info      : Advanced Video Codec
Format profile       : [email protected]
Format settings      : CABAC / 4 Ref Frames
Format settings, CABAC       : Yes
Format settings, Reference frames    : 4 frames
Codec ID         : V_MPEG4/ISO/AVC
Duration         : 1 h 28 min
Bit rate mode        : Constant
Bit rate         : 10 000 kb/s
Width        : 1 920 pixels
Height       : 1 080 pixels
Display aspect ratio     : 16:9
Frame rate mode      : Constant
Frame rate       : 23.976 (24000/1001) FPS
Color space      : YUV
Chroma subsampling       : 4:2:0
Bit depth        : 8 bits
Scan type        : Progressive
Bits/(Pixel*Frame)       : 0.201
Stream size      : 6.12 GiB (94%)
Language         : English
Default          : Yes
Forced       : No
Color range      : Limited
Color primaries      : BT.709
Transfer characteristics     : BT.709
Matrix coefficients      : BT.709

Audio
ID           : 2
Format       : E-AC-3
Format/Info      : Enhanced AC-3
Commercial name      : Dolby Digital Plus
Codec ID         : A_EAC3
Duration         : 1 h 28 min
Bit rate mode        : Constant
Bit rate         : 640 kb/s
Channel(s)       : 6 channels
Channel layout       : L R C LFE Ls Rs
Sampling rate        : 48.0 kHz
Frame rate       : 31.250 FPS (1536 SPF)
Compression mode     : Lossy
Stream size      : 403 MiB (6%)
Language         : English
Service kind         : Complete Main
Default          : Yes
Forced       : No

Text #1
ID           : 3
Format       : UTF-8
Codec ID         : S_TEXT/UTF8
Codec ID/Info        : UTF-8 Plain Text
Duration         : 1 h 22 min
Bit rate         : 83 b/s
Count of elements        : 1548
Stream size      : 50.8 KiB (0%)
Language         : English
Default          : No
Forced       : No

Text #2
ID           : 4
Format       : UTF-8
Codec ID         : S_TEXT/UTF8
Codec ID/Info        : UTF-8 Plain Text
Duration         : 1 h 27 min
Bit rate         : 87 b/s
Count of elements        : 1694
Stream size      : 55.7 KiB (0%)
Title        : SDH
Language         : English
Default          : No
Forced       : No



悠悠MP4_MP4电影下载_唐纳德哭了 Donald.Cried.2016.1080p.AMZN.WEBRip.DDP5.1.x264-CBON 6.51 GB
悠悠MP4_MP4电影下载_唐纳德哭了 Donald.Cried.2016.1080p.AMZN.WEBRip.DDP5.1.x264-CBON 6.51 GB
悠悠MP4_MP4电影下载_唐纳德哭了 Donald.Cried.2016.1080p.AMZN.WEBRip.DDP5.1.x264-CBON 6.51 GB

磁力链接

magnet:?xt=urn:btih:8612bf982bb693f4eead6386d40a084d5f9805c3

上传的附件:
最新回复 (0)
返回
本站所有资源均收集自互联网,没有提供影片资源存储, 也未参与录制、上传,若本站收录的资源无意侵犯了您的权益, 请联系邮箱:gogoimgs#gmail.com(#[email protected])