[2021] [欧美] [爱情] [x264-1080P] 完美婚礼 A.Picture.Perfect.Wedding.2021.1080p.AMZN.WEBRip.DDP2.0.x264-T7ST 4.47 GB

uump4 6天前

悠悠MP4_MP4电影下载_完美婚礼 A.Picture.Perfect.Wedding.2021.1080p.AMZN.WEBRip.DDP2.0.x264-T7ST 4.47 GB

◎片  名 完美婚礼 A Picture Perfect Wedding
◎年  代 2021
◎产  地 加拿大 Canada
◎类  别 喜剧 / 爱情
◎语  言 英语
◎上映日期 2021-02-21(加拿大)
◎IMDb评分  5.5/10 from 188 users
◎IMDb链接  https://www.imdb.com/title/tt13697800/
◎豆瓣评分 /10 from 0 users
◎豆瓣链接 https://movie.douban.com/subject/35474682/
◎片  长 90min
◎导  演 Jason James Jason James
◎编  剧 
◎主  演 艾米丽·坦南特 Emily Tennant
       泰勒·约翰斯顿 Tyler Johnston

◎简  介

  Photographer Lindsey gets asked by a New York mogul's son, Josh, to shoot his sister's wedding. Sparks fly as Josh and Lindsey prepare for ceremony, but as the big day arrive, what will their hearts decide?



Video
ID           : 1
Format       : AVC
Format/Info      : Advanced Video Codec
Format profile       : [email protected]
Format settings      : CABAC / 4 Ref Frames
Format settings, CABAC       : Yes
Format settings, Reference frames    : 4 frames
Codec ID         : V_MPEG4/ISO/AVC
Duration         : 1 h 29 min
Bit rate mode        : Constant
Bit rate         : 6 957 kb/s
Nominal bit rate     : 10 000 kb/s
Width        : 1 920 pixels
Height       : 1 080 pixels
Display aspect ratio     : 16:9
Frame rate mode      : Constant
Frame rate       : 24.000 FPS
Color space      : YUV
Chroma subsampling       : 4:2:0
Bit depth        : 8 bits
Scan type        : Progressive
Bits/(Pixel*Frame)       : 0.140
Stream size      : 4.33 GiB (97%)
Default          : Yes
Forced       : No
Color range      : Limited
Color primaries      : BT.709
Transfer characteristics     : BT.709
Matrix coefficients      : BT.709

Audio
ID           : 2
Format       : E-AC-3
Format/Info      : Enhanced AC-3
Commercial name      : Dolby Digital Plus
Codec ID         : A_EAC3
Duration         : 1 h 29 min
Bit rate mode        : Constant
Bit rate         : 224 kb/s
Channel(s)       : 2 channels
Channel layout       : L R
Sampling rate        : 48.0 kHz
Frame rate       : 31.250 FPS (1536 SPF)
Compression mode     : Lossy
Stream size      : 143 MiB (3%)
Language         : English
Service kind         : Complete Main
Default          : Yes
Forced       : No

Text
ID           : 3
Format       : UTF-8
Codec ID         : S_TEXT/UTF8
Codec ID/Info        : UTF-8 Plain Text
Duration         : 1 h 25 min
Bit rate         : 68 b/s
Count of elements        : 1689
Stream size      : 43.0 KiB (0%)
Title        : SDH
Language         : English
Default          : No
Forced       : No



悠悠MP4_MP4电影下载_完美婚礼 A.Picture.Perfect.Wedding.2021.1080p.AMZN.WEBRip.DDP2.0.x264-T7ST 4.47 GB
悠悠MP4_MP4电影下载_完美婚礼 A.Picture.Perfect.Wedding.2021.1080p.AMZN.WEBRip.DDP2.0.x264-T7ST 4.47 GB
悠悠MP4_MP4电影下载_完美婚礼 A.Picture.Perfect.Wedding.2021.1080p.AMZN.WEBRip.DDP2.0.x264-T7ST 4.47 GB

磁力链接

magnet:?xt=urn:btih:a5cba5a9cf72afe2293d23c18cecc171851cbf20

上传的附件:
最新回复 (0)
返回
本站所有资源均收集自互联网,没有提供影片资源存储, 也未参与录制、上传,若本站收录的资源无意侵犯了您的权益, 请联系邮箱:gogoimgs#gmail.com(#[email protected])