[更早] [欧美] [恐怖] [BD-Remux] 夺命惊吓 Uncle.Sam.1996.2160p.BluRay.REMUX.HEVC.DTS-HD.MA.TrueHD.7.1.Atmos-FGT 48.87 GB

uump4 8天前

悠悠MP4_MP4电影下载_夺命惊吓 Uncle.Sam.1996.2160p.BluRay.REMUX.HEVC.DTS-HD.MA.TrueHD.7.1.Atmos-FGT 48.87 GB

◎片  名 夺命惊吓 Uncle Sam / 魔鬼叔叔山姆
◎年  代 1997
◎产  地 美国
◎类  别 喜剧 / 恐怖
◎语  言 英语
◎上映日期 1997-07-04
◎IMDb评分  4.4/10 from 2694 users
◎IMDb链接  https://www.imdb.com/title/tt0118025/
◎豆瓣评分 5.6/10 from 69 users
◎豆瓣链接 https://movie.douban.com/subject/1300490/
◎片  长 89 分钟
◎导  演 威廉·拉斯蒂格 William Lustig
◎编  剧 拉里·柯恩 Larry Cohen
◎主  演 Christopher Ogden Christopher Ogden
       摩根·保罗 Morgan Paull
       Anne Tremko Anne Tremko
       威廉·史密斯 William Smith
       Mark Chadwick Mark Chadwick
       莱斯莉·尼尔 Leslie Neale
       扎卡里·麦克莱莫尔 Zachary McLemore
       David 'Shark' Fralick David 'Shark' Fralick
       P·J·索尔丝 P.J. Soles
       斯坦森·布莱特 Stanton Barrett
       Jason Adelman Jason Adelman
       罗伯特·福斯特 Robert Forster
       蒂姆斯·伯特姆斯 Timothy Bottoms
       拉奎尔·阿莱西 Raquel Alessi
       艾萨克·海耶斯 Isaac Hayes
       博·霍普金斯 Bo Hopkins

◎简  介

  It's Fourth Of July Weekend, and the recently discovered corpse of Sgt. Sam Harper - killed by 'friendly fire' during the first Gulf War - is returned to his all-American hometown. But when Sam rises from the dead to punish the unpatriotic, only his young nephew and a bitter Korean War veteran (Soul icon Isaac Hayes of SHAFT and SOUTH PARK fame) can stop his red-blooded rampage. Draft dodgers, tax cheats, crooked politicians and flag-burners beware: Uncle Sam wants you... DEAD!



Video
ID           : 1
ID in the original source medium     : 4113 (0x1011)
Format       : HEVC
Format/Info      : High Efficiency Video Coding
Format profile       : Main [email protected]@High
HDR format       : Dolby Vision, Version 1.0, dvhe.07.06, BL+EL+RPU, Blu-ray compatible / SMPTE ST 2086, HDR10 compatible
Codec ID         : V_MPEGH/ISO/HEVC
Duration         : 1 h 29 min
Bit rate         : 69.7 Mb/s
Width        : 3 840 pixels
Height       : 2 160 pixels
Display aspect ratio     : 16:9
Frame rate mode      : Constant
Frame rate       : 23.976 (24000/1001) FPS
Color space      : YUV
Chroma subsampling       : 4:2:0 (Type 2)
Bit depth        : 10 bits
Bits/(Pixel*Frame)       : 0.350
Stream size      : 43.4 GiB (89%)
Language         : English
Default          : No
Forced       : No
Color range      : Limited
Color primaries      : BT.2020
Transfer characteristics     : PQ
Matrix coefficients      : BT.2020 non-constant
Mastering display color primaries    : BT.2020
Mastering display luminance      : min: 0.0001 cd/m2, max: 1000 cd/m2
Maximum Content Light Level      : 999 cd/m2
Maximum Frame-Average Light Level    : 67 cd/m2
Original source medium       : Blu-ray

Audio #1
ID           : 2
ID in the original source medium     : 4352 (0x1100)
Format       : MLP FBA 16-ch
Format/Info      : Meridian Lossless Packing FBA with 16-channel presentation
Commercial name      : Dolby TrueHD with Dolby Atmos
Codec ID         : A_TRUEHD
Duration         : 1 h 29 min
Bit rate mode        : Variable
Bit rate         : 4 005 kb/s
Maximum bit rate     : 6 861 kb/s
Channel(s)       : 8 channels
Channel layout       : L R C LFE Ls Rs Lb Rb
Sampling rate        : 48.0 kHz
Frame rate       : 1 200.000 FPS (40 SPF)
Bit depth        : 24 bits
Compression mode     : Lossless
Stream size      : 2.49 GiB (5%)
Title        : TrueHD 7.1 Atmos
Language         : English
Default          : Yes
Forced       : No
Original source medium       : Blu-ray
Number of dynamic objects    : 11
Bed channel count        : 1 channel
Bed channel configuration    : LFE

Audio #2
ID           : 3
Format       : DTS XLL
Format/Info      : Digital Theater Systems
Commercial name      : DTS-HD Master Audio
Codec ID         : A_DTS
Duration         : 1 h 29 min
Bit rate mode        : Variable
Bit rate         : 3 880 kb/s
Channel(s)       : 8 channels
Channel layout       : C L R LFE Lb Rb Lss Rss
Sampling rate        : 48.0 kHz
Frame rate       : 93.750 FPS (512 SPF)
Bit depth        : 24 bits
Compression mode     : Lossless
Stream size      : 2.42 GiB (5%)
Title        : DTS-HD MA 7.1
Language         : English
Default          : No
Forced       : No

Audio #3
ID           : 4
ID in the original source medium     : 4352 (0x1100)
Format       : AC-3
Format/Info      : Audio Coding 3
Commercial name      : Dolby Digital
Codec ID         : A_AC3
Duration         : 1 h 29 min
Bit rate mode        : Constant
Bit rate         : 384 kb/s
Channel(s)       : 6 channels
Channel layout       : L R C LFE Ls Rs
Sampling rate        : 48.0 kHz
Frame rate       : 31.250 FPS (1536 SPF)
Compression mode     : Lossy
Stream size      : 245 MiB (0%)
Title        : DD 5.1
Language         : English
Service kind         : Complete Main
Default          : No
Forced       : No
Original source medium       : Blu-ray

Audio #4
ID           : 5
ID in the original source medium     : 4354 (0x1102)
Format       : AC-3
Format/Info      : Audio Coding 3
Commercial name      : Dolby Digital
Codec ID         : A_AC3
Duration         : 1 h 29 min
Bit rate mode        : Constant
Bit rate         : 192 kb/s
Channel(s)       : 2 channels
Channel layout       : L R
Sampling rate        : 48.0 kHz
Frame rate       : 31.250 FPS (1536 SPF)
Compression mode     : Lossy
Stream size      : 122 MiB (0%)
Title        : DD 2.0
Language         : English
Service kind         : Complete Main
Default          : No
Forced       : No
Original source medium       : Blu-ray

Audio #5
ID           : 6
ID in the original source medium     : 4355 (0x1103)
Format       : AC-3
Format/Info      : Audio Coding 3
Commercial name      : Dolby Digital
Codec ID         : A_AC3
Duration         : 1 h 29 min
Bit rate mode        : Constant
Bit rate         : 192 kb/s
Channel(s)       : 2 channels
Channel layout       : L R
Sampling rate        : 48.0 kHz
Frame rate       : 31.250 FPS (1536 SPF)
Compression mode     : Lossy
Stream size      : 122 MiB (0%)
Title        : DD 2.0
Language         : English
Service kind         : Complete Main
Default          : No
Forced       : No
Original source medium       : Blu-ray

Text #1
ID           : 7
Format       : UTF-8
Codec ID         : S_TEXT/UTF8
Codec ID/Info        : UTF-8 Plain Text
Duration         : 1 h 26 min
Bit rate         : 46 b/s
Count of elements        : 844
Stream size      : 29.6 KiB (0%)
Language         : English
Default          : Yes
Forced       : No

Text #2
ID           : 8
Format       : UTF-8
Codec ID         : S_TEXT/UTF8
Codec ID/Info        : UTF-8 Plain Text
Duration         : 1 h 28 min
Bit rate         : 51 b/s
Count of elements        : 960
Stream size      : 33.2 KiB (0%)
Title        : SDH
Language         : English
Default          : No
Forced       : No

Text #3
ID           : 9
ID in the original source medium     : 4768 (0x12A0)
Format       : PGS
Muxing mode      : zlib
Codec ID         : S_HDMV/PGS
Codec ID/Info        : Picture based subtitle format used on BDs/HD-DVDs
Duration         : 1 h 28 min
Bit rate         : 34.1 kb/s
Count of elements        : 1930
Stream size      : 21.6 MiB (0%)
Language         : English
Default          : No
Forced       : No
Original source medium       : Blu-ray

Text #4
ID           : 10
ID in the original source medium     : 4769 (0x12A1)
Format       : PGS
Muxing mode      : zlib
Codec ID         : S_HDMV/PGS
Codec ID/Info        : Picture based subtitle format used on BDs/HD-DVDs
Duration         : 1 h 28 min
Bit rate         : 28.7 kb/s
Count of elements        : 1608
Stream size      : 18.1 MiB (0%)
Language         : French
Default          : No
Forced       : No
Original source medium       : Blu-ray

Text #5
ID           : 11
ID in the original source medium     : 4770 (0x12A2)
Format       : PGS
Muxing mode      : zlib
Codec ID         : S_HDMV/PGS
Codec ID/Info        : Picture based subtitle format used on BDs/HD-DVDs
Duration         : 1 h 28 min
Bit rate         : 28.2 kb/s
Count of elements        : 1612
Stream size      : 17.8 MiB (0%)
Language         : Spanish
Default          : No
Forced       : No
Original source medium       : Blu-ray

Menu
00:00:00.000         : en:Chapter 01
00:04:47.453         : en:Chapter 02
00:11:42.493         : en:Chapter 03
00:15:54.244         : en:Chapter 04
00:22:59.795         : en:Chapter 05
00:28:27.372         : en:Chapter 06
00:35:20.701         : en:Chapter 07
00:39:33.037         : en:Chapter 08
00:42:53.404         : en:Chapter 09
00:45:57.254         : en:Chapter 10
00:48:21.690         : en:Chapter 11
00:52:07.374         : en:Chapter 12
00:55:22.485         : en:Chapter 13
00:59:05.375         : en:Chapter 14
01:02:28.494         : en:Chapter 15
01:08:39.156         : en:Chapter 16
01:16:32.087         : en:Chapter 17
01:20:41.962         : en:Chapter 18
01:25:23.993         : en:Chapter 19



悠悠MP4_MP4电影下载_夺命惊吓 Uncle.Sam.1996.2160p.BluRay.REMUX.HEVC.DTS-HD.MA.TrueHD.7.1.Atmos-FGT 48.87 GB
悠悠MP4_MP4电影下载_夺命惊吓 Uncle.Sam.1996.2160p.BluRay.REMUX.HEVC.DTS-HD.MA.TrueHD.7.1.Atmos-FGT 48.87 GB
悠悠MP4_MP4电影下载_夺命惊吓 Uncle.Sam.1996.2160p.BluRay.REMUX.HEVC.DTS-HD.MA.TrueHD.7.1.Atmos-FGT 48.87 GB

磁力链接

magnet:?xt=urn:btih:624910820e87f273793d69006bc135875e22cada

上传的附件:
最新回复 (0)
返回
本站所有资源均收集自互联网,没有提供影片资源存储, 也未参与录制、上传,若本站收录的资源无意侵犯了您的权益, 请联系邮箱:gogoimgs#gmail.com(#[email protected])