[更早] [欧美] [恐怖] [x265-4K-HDR] 夺命惊吓 Uncle.Sam.1996.2160p.UHD.BluRay.x265.10bit.HDR.TrueHD.7.1.Atmos-B0MBARDiERS 31.98 GB

uump4 9天前

悠悠MP4_MP4电影下载_夺命惊吓 Uncle.Sam.1996.2160p.UHD.BluRay.x265.10bit.HDR.TrueHD.7.1.Atmos-B0MBARDiERS 31.98 GB

◎片  名 夺命惊吓 Uncle Sam / 魔鬼叔叔山姆
◎年  代 1997
◎产  地 美国
◎类  别 喜剧 / 恐怖
◎语  言 英语
◎上映日期 1997-07-04
◎IMDb评分  4.4/10 from 2694 users
◎IMDb链接  https://www.imdb.com/title/tt0118025/
◎豆瓣评分 5.6/10 from 69 users
◎豆瓣链接 https://movie.douban.com/subject/1300490/
◎片  长 89 分钟
◎导  演 威廉·拉斯蒂格 William Lustig
◎编  剧 拉里·柯恩 Larry Cohen
◎主  演 Christopher Ogden Christopher Ogden
       摩根·保罗 Morgan Paull
       Anne Tremko Anne Tremko
       威廉·史密斯 William Smith
       Mark Chadwick Mark Chadwick
       莱斯莉·尼尔 Leslie Neale
       扎卡里·麦克莱莫尔 Zachary McLemore
       David 'Shark' Fralick David 'Shark' Fralick
       P·J·索尔丝 P.J. Soles
       斯坦森·布莱特 Stanton Barrett
       Jason Adelman Jason Adelman
       罗伯特·福斯特 Robert Forster
       蒂姆斯·伯特姆斯 Timothy Bottoms
       拉奎尔·阿莱西 Raquel Alessi
       艾萨克·海耶斯 Isaac Hayes
       博·霍普金斯 Bo Hopkins

◎简  介

  It's Fourth Of July Weekend, and the recently discovered corpse of Sgt. Sam Harper - killed by 'friendly fire' during the first Gulf War - is returned to his all-American hometown. But when Sam rises from the dead to punish the unpatriotic, only his young nephew and a bitter Korean War veteran (Soul icon Isaac Hayes of SHAFT and SOUTH PARK fame) can stop his red-blooded rampage. Draft dodgers, tax cheats, crooked politicians and flag-burners beware: Uncle Sam wants you... DEAD!



Video
ID           : 1
Format       : HEVC
Format/Info      : High Efficiency Video Coding
Format profile       : Main [email protected]@High
HDR format       : SMPTE ST 2086, HDR10 compatible
Codec ID         : V_MPEGH/ISO/HEVC
Duration         : 1 h 29 min
Bit rate         : 46.7 Mb/s
Width        : 3 840 pixels
Height       : 1 604 pixels
Display aspect ratio     : 2.40:1
Frame rate mode      : Constant
Frame rate       : 23.976 (24000/1001) FPS
Color space      : YUV
Chroma subsampling       : 4:2:0 (Type 2)
Bit depth        : 10 bits
Bits/(Pixel*Frame)       : 0.316
Stream size      : 29.1 GiB (91%)
Writing library      : x265 3.5+36-9b59d4554:[Windows][GCC 11.2.0][64 bit] 10bit
Encoding settings        : cpuid=1176575 / frame-threads=5 / numa-pools=36 / wpp / no-pmode / no-pme / no-psnr / no-ssim / log-level=2 / input-csp=1 / input-res=3840x1604 / interlace=0 / total-frames=128338 / level-idc=51 / high-tier=1 / uhd-bd=0 / ref=4 / no-allow-non-conformance / repeat-headers / annexb / aud / no-eob / no-eos / hrd / info / hash=0 / no-temporal-layers / open-gop / min-keyint=23 / keyint=250 / gop-lookahead=0 / bframes=4 / b-adapt=2 / b-pyramid / bframe-bias=0 / rc-lookahead=25 / lookahead-slices=4 / scenecut=40 / no-hist-scenecut / radl=0 / no-splice / no-intra-refresh / ctu=64 / min-cu-size=8 / rect / no-amp / max-tu-size=32 / tu-inter-depth=1 / tu-intra-depth=1 / limit-tu=0 / rdoq-level=2 / dynamic-rd=0.00 / no-ssim-rd / signhide / no-tskip / nr-intra=0 / nr-inter=0 / no-constrained-intra / strong-intra-smoothing / max-merge=3 / limit-refs=3 / limit-modes / me=3 / subme=3 / merange=57 / temporal-mvp / no-frame-dup / no-hme / weightp / no-weightb / no-analyze-src-pics / deblock=-3:-3 / no-sao / no-sao-non-deblock / rd=4 / selective-sao=0 / no-early-skip / rskip / no-fast-intra / no-tskip-fast / no-cu-lossless / no-b-intra / no-splitrd-skip / rdpenalty=0 / psy-rd=2.00 / psy-rdoq=1.00 / no-rd-refine / no-lossless / cbqpoffs=0 / crqpoffs=0 / rc=crf / crf=19.6 / qcomp=0.60 / qpstep=4 / stats-write=0 / stats-read=0 / vbv-maxrate=160000 / vbv-bufsize=160000 / vbv-init=0.9 / min-vbv-fullness=50.0 / max-vbv-fullness=80.0 / crf-max=0.0 / crf-min=0.0 / ipratio=1.40 / pbratio=1.30 / aq-mode=2 / aq-strength=1.00 / cutree / zone-count=0 / no-strict-cbr / qg-size=32 / no-rc-grain / qpmax=69 / qpmin=0 / no-const-vbv / sar=1 / overscan=0 / videoformat=5 / range=0 / colorprim=9 / transfer=16 / colormatrix=9 / chromaloc=1 / chromaloc-top=2 / chromaloc-bottom=2 / display-window=0 / master-display=G(8500,39850)B(6550,2300)R(35400,14600)WP(15635,16450)L(10000000,1) / cll=1000,721 / min-luma=0 / max-luma=1023 / log2-max-poc-lsb=8 / vui-timing-info / vui-hrd-info / slices=1 / no-opt-qp-pps / no-opt-ref-list-length-pps / no-multi-pass-opt-rps / scenecut-bias=0.05 / hist-threshold=0.03 / no-opt-cu-delta-qp / no-aq-motion / hdr10 / hdr10-opt / no-dhdr10-opt / no-idr-recovery-sei / analysis-reuse-level=0 / analysis-save-reuse-level=0 / analysis-load-reuse-level=0 / scale-factor=0 / refine-intra=0 / refine-inter=0 / refine-mv=1 / refine-ctu-distortion=0 / no-limit-sao / ctu-info=0 / no-lowpass-dct / refine-analysis-type=0 / copy-pic=1 / max-ausize-factor=1.0 / no-dynamic-refine / no-single-sei / no-hevc-aq / no-svt / no-field / qp-adaptation-range=1.00 / scenecut-aware-qp=0conformance-window-offsets / right=0 / bottom=0 / decoder-max-rate=0 / no-vbv-live-multi-pass
Default          : Yes
Forced       : No
Color range      : Limited
Color primaries      : BT.2020
Transfer characteristics     : PQ
Matrix coefficients      : BT.2020 non-constant
Mastering display color primaries    : BT.2020
Mastering display luminance      : min: 0.0001 cd/m2, max: 1000 cd/m2
Maximum Content Light Level      : 1000 cd/m2
Maximum Frame-Average Light Level    : 721 cd/m2

Audio #1
ID           : 2
Format       : MLP FBA 16-ch
Format/Info      : Meridian Lossless Packing FBA with 16-channel presentation
Commercial name      : Dolby TrueHD with Dolby Atmos
Codec ID         : A_TRUEHD
Duration         : 1 h 29 min
Bit rate mode        : Variable
Bit rate         : 4 005 kb/s
Maximum bit rate     : 6 861 kb/s
Channel(s)       : 8 channels
Channel layout       : L R C LFE Ls Rs Lb Rb
Sampling rate        : 48.0 kHz
Frame rate       : 1 200.000 FPS (40 SPF)
Compression mode     : Lossless
Stream size      : 2.49 GiB (8%)
Language         : English
Default          : Yes
Forced       : No
Number of dynamic objects    : 11
Bed channel count        : 1 channel
Bed channel configuration    : LFE

Audio #2
ID           : 3
Format       : AC-3
Format/Info      : Audio Coding 3
Commercial name      : Dolby Digital
Codec ID         : A_AC3
Duration         : 1 h 29 min
Bit rate mode        : Constant
Bit rate         : 384 kb/s
Channel(s)       : 6 channels
Channel layout       : L R C LFE Ls Rs
Sampling rate        : 48.0 kHz
Frame rate       : 31.250 FPS (1536 SPF)
Compression mode     : Lossy
Stream size      : 245 MiB (1%)
Language         : English
Service kind         : Complete Main
Default          : Yes
Forced       : No

Audio #3
ID           : 4
Format       : AAC LC
Format/Info      : Advanced Audio Codec Low Complexity
Codec ID         : A_AAC-2
Duration         : 1 h 29 min
Bit rate         : 96.0 kb/s
Channel(s)       : 2 channels
Channel layout       : L R
Sampling rate        : 48.0 kHz
Frame rate       : 46.875 FPS (1024 SPF)
Compression mode     : Lossy
Delay relative to video      : 9 ms
Stream size      : 61.4 MiB (0%)
Title        : Commentary 1
Language         : English
Default          : No
Forced       : No

Audio #4
ID           : 5
Format       : AAC LC SBR
Format/Info      : Advanced Audio Codec Low Complexity with Spectral Band Replication
Commercial name      : HE-AAC
Format settings      : Explicit
Codec ID         : A_AAC-2
Duration         : 1 h 29 min
Bit rate         : 39.1 kb/s
Channel(s)       : 2 channels
Channel layout       : L R
Sampling rate        : 48.0 kHz
Frame rate       : 23.438 FPS (2048 SPF)
Compression mode     : Lossy
Delay relative to video      : 31 ms
Stream size      : 24.9 MiB (0%)
Title        : Commentary 2
Language         : English
Default          : No
Forced       : No

Text #1
ID           : 6
Format       : PGS
Muxing mode      : zlib
Codec ID         : S_HDMV/PGS
Codec ID/Info        : Picture based subtitle format used on BDs/HD-DVDs
Duration         : 1 h 28 min
Bit rate         : 34.1 kb/s
Count of elements        : 1930
Stream size      : 21.6 MiB (0%)
Title        : English SDH
Language         : English
Default          : No
Forced       : No

Text #2
ID           : 7
Format       : PGS
Muxing mode      : zlib
Codec ID         : S_HDMV/PGS
Codec ID/Info        : Picture based subtitle format used on BDs/HD-DVDs
Duration         : 1 h 28 min
Bit rate         : 28.7 kb/s
Count of elements        : 1608
Stream size      : 18.1 MiB (0%)
Title        : French
Language         : French
Default          : No
Forced       : No

Text #3
ID           : 8
Format       : PGS
Muxing mode      : zlib
Codec ID         : S_HDMV/PGS
Codec ID/Info        : Picture based subtitle format used on BDs/HD-DVDs
Duration         : 1 h 28 min
Bit rate         : 28.2 kb/s
Count of elements        : 1612
Stream size      : 17.8 MiB (0%)
Title        : Spanish
Language         : Spanish
Default          : No
Forced       : No

Menu
00:00:00.000         : en:Chapter 01
00:04:47.621         : en:Chapter 02
00:11:42.160         : en:Chapter 03
00:15:54.287         : en:Chapter 04
00:22:59.795         : en:Chapter 05
00:28:27.706         : en:Chapter 06
00:35:20.744         : en:Chapter 07
00:39:33.329         : en:Chapter 08
00:42:52.987         : en:Chapter 09
00:45:57.254         : en:Chapter 10
00:48:21.690         : en:Chapter 11
00:52:07.708         : en:Chapter 12
00:55:22.694         : en:Chapter 13
00:59:05.500         : en:Chapter 14
01:02:28.495         : en:Chapter 15
01:08:39.157         : en:Chapter 16
01:16:32.087         : en:Chapter 17
01:20:42.129         : en:Chapter 18
01:25:24.119         : en:Chapter 19
01:29:12.514         : en:Chapter 20



悠悠MP4_MP4电影下载_夺命惊吓 Uncle.Sam.1996.2160p.UHD.BluRay.x265.10bit.HDR.TrueHD.7.1.Atmos-B0MBARDiERS 31.98 GB
悠悠MP4_MP4电影下载_夺命惊吓 Uncle.Sam.1996.2160p.UHD.BluRay.x265.10bit.HDR.TrueHD.7.1.Atmos-B0MBARDiERS 31.98 GB
悠悠MP4_MP4电影下载_夺命惊吓 Uncle.Sam.1996.2160p.UHD.BluRay.x265.10bit.HDR.TrueHD.7.1.Atmos-B0MBARDiERS 31.98 GB

磁力链接

magnet:?xt=urn:btih:011db336fb3ca206c216451819a488aa61178c2e

上传的附件:
最新回复 (0)
返回
本站所有资源均收集自互联网,没有提供影片资源存储, 也未参与录制、上传,若本站收录的资源无意侵犯了您的权益, 请联系邮箱:gogoimgs#gmail.com(#[email protected])