[2022] [欧美] [其他] [x264-4K] 神奇动物:邓布利多之谜 Fantastic.Beasts.The.Secrets.of.Dumbledore.2022.2160p.BluRay.x264.8bit.SDR.DTS-HD.MA.TrueHD.7.1.Atmos-SWTYBLZ 24.03

uump4 9天前

悠悠MP4_MP4电影下载_神奇动物:邓布利多之谜 Fantastic.Beasts.The.Secrets.of.Dumbledore.2022.2160p.BluRay.x264.8bit.SDR.DTS-HD.MA.TrueHD.7.1.Atmos-SWTYBLZ 24.03

◎片  名 神奇动物:邓布利多之谜 Fantastic Beasts: The Secrets of Dumbledore / 神奇动物在哪里3:邓布利多之谜 / 神奇生物在哪里3 / 怪兽与邓不利多的秘密(港/台)
◎年  代 2022
◎产  地 英国 / 美国
◎类  别 奇幻 / 冒险
◎语  言 英语 / 德语
◎上映日期 2022-04-08(英国/中国大陆) / 2022-04-15(美国)
◎IMDb评分  6.2/10 from 99112 users
◎IMDb链接  https://www.imdb.com/title/tt4123432/
◎豆瓣评分 5.9/10 from 155730 users
◎豆瓣链接 https://movie.douban.com/subject/26147418/
◎片  长 142分钟
◎导  演 大卫·叶茨 David Yates
◎编  剧 J. K. 罗琳 J. K. Rowling
       史蒂夫·克洛夫斯 Steve Kloves
◎主  演 埃迪·雷德梅恩 Eddie Redmayne
       裘德·洛 Jude Law
       麦斯·米科尔森 Mads Mikkelsen
       丹·福勒 Dan Fogler
       艾莉森·萨多尔 Alison Sudol
       凯瑟琳·沃特斯顿 Katherine Waterston
       埃兹拉·米勒 Ezra Miller
       卡勒姆·特纳 Callum Turner
       杰西卡·威廉姆斯 Jessica Williams
       理查德·柯伊尔 Richard Coyle
       波佩·科比-特曲 Poppy Corby-Tuech
       维多利亚·耶茨 Victoria Yeates
       威廉·纳迪兰 William Nadylam
       奥利弗·马苏奇 Oliver Masucci
       瓦莱丽·帕赫纳 Valerie Pachner
       亚历山大·库兹涅佐夫 Aleksandr Kuznetsov
       拉莫娜·库泽-莉比诺 Ramona Kunze-Libnow
       马丽娅·费尔南达·康基多 Maria Fernanda Cândido
       戴夫·王 Dave Wong
       维尔夫·斯科尔丁 Wilf Scolding
       卢卡斯·英格兰德 Lucas Englander
       菲奥娜·格拉斯科特 Fiona Glascott
       马提亚斯·布伦纳 Matthias Brenner
       彼得·西蒙尼舍克 Peter Simonischek
       雅基·波特斯万 Jacqui Boatswain
       赫柏·贝尔德索尔 Hebe Beardsall
       曼努埃尔·克莱因 Manuel Klein
       凯文·格思里 Kevin Guthrie

◎简  介

  阿不思·邓布利多教授(裘德·洛 饰)意识到强大的黑巫师盖勒特·格林德沃(麦斯·米科尔森 饰)正试图夺取魔法世界的控制权。邓布利多了解仅凭他一人之力,将无法阻止格林德沃,于是他委托魔法动物学家纽特·斯卡曼德(埃迪·雷德梅恩 饰)带领一支精良的团队——成员包括男巫、女巫及一位勇敢的麻瓜面包师,来共同执行这项危险任务。一路上他们会遇到各式各样的神奇动物,既有老朋友,也有前所未见的神秘生物;同时他们也随时会与格林德沃不断壮大的追随者发生冲突。这次行动的风险是如此之高……邓布利多还能袖手旁观多久?



Video
ID           : 1
Format       : AVC
Format/Info      : Advanced Video Codec
Format profile       : [email protected]
Format settings      : CABAC / 5 Ref Frames
Format settings, CABAC       : Yes
Format settings, Reference frames    : 5 frames
Codec ID         : V_MPEG4/ISO/AVC
Duration         : 2 h 22 min
Bit rate         : 17.4 Mb/s
Width        : 3 840 pixels
Height       : 1 606 pixels
Display aspect ratio     : 2.40:1
Frame rate mode      : Constant
Frame rate       : 23.976 (24000/1001) FPS
Color space      : YUV
Chroma subsampling       : 4:2:0
Bit depth        : 8 bits
Scan type        : Progressive
Bits/(Pixel*Frame)       : 0.118
Stream size      : 17.4 GiB (73%)
Writing library      : x264 core 157 r2935 545de2f
Encoding settings        : cabac=1 / ref=5 / deblock=1:-1:-1 / analyse=0x3:0x113 / me=umh / subme=10 / psy=1 / psy_rd=1.00:0.15 / mixed_ref=1 / me_range=48 / chroma_me=1 / trellis=2 / 8x8dct=1 / cqm=0 / deadzone=21,11 / fast_pskip=1 / chroma_qp_offset=-3 / threads=48 / lookahead_threads=4 / sliced_threads=0 / nr=0 / decimate=0 / interlaced=0 / bluray_compat=0 / constrained_intra=0 / bframes=3 / b_pyramid=2 / b_adapt=2 / b_bias=0 / direct=3 / weightb=1 / open_gop=0 / weightp=2 / keyint=250 / keyint_min=23 / scenecut=40 / intra_refresh=0 / rc_lookahead=50 / rc=crf / mbtree=1 / crf=16.0 / qcomp=0.60 / qpmin=0 / qpmax=69 / qpstep=4 / ip_ratio=1.40 / aq=1:1.00
Default          : Yes
Forced       : No

Audio #1
ID           : 2
ID in the original source medium     : 4352 (0x1100)
Format       : MLP FBA 16-ch
Format/Info      : Meridian Lossless Packing FBA with 16-channel presentation
Commercial name      : Dolby TrueHD with Dolby Atmos
Codec ID         : A_TRUEHD
Duration         : 2 h 22 min
Bit rate mode        : Variable
Bit rate         : 2 742 kb/s
Maximum bit rate     : 4 389 kb/s
Channel(s)       : 8 channels
Channel layout       : L R C LFE Ls Rs Lb Rb
Sampling rate        : 48.0 kHz
Frame rate       : 1 200.000 FPS (40 SPF)
Bit depth        : 24 bits
Compression mode     : Lossless
Stream size      : 2.73 GiB (11%)
Title        : TrueHD 7.1 Atmos
Language         : English
Default          : Yes
Forced       : No
Original source medium       : Blu-ray
Number of dynamic objects    : 11
Bed channel count        : 1 channel
Bed channel configuration    : LFE

Audio #2
ID           : 3
Format       : DTS XLL
Format/Info      : Digital Theater Systems
Commercial name      : DTS-HD Master Audio
Codec ID         : A_DTS
Duration         : 2 h 22 min
Bit rate mode        : Variable
Bit rate         : 3 254 kb/s
Channel(s)       : 8 channels
Channel layout       : C L R LFE Lb Rb Lss Rss
Sampling rate        : 48.0 kHz
Frame rate       : 93.750 FPS (512 SPF)
Bit depth        : 24 bits
Compression mode     : Lossless
Stream size      : 3.24 GiB (14%)
Title        : DTS-HD MA 7.1
Language         : English
Default          : No
Forced       : No

Audio #3
ID           : 4
ID in the original source medium     : 4352 (0x1100)
Format       : AC-3
Format/Info      : Audio Coding 3
Commercial name      : Dolby Digital
Format settings      : Dolby Surround EX
Codec ID         : A_AC3
Duration         : 2 h 22 min
Bit rate mode        : Constant
Bit rate         : 448 kb/s
Channel(s)       : 6 channels
Channel layout       : L R C LFE Ls Rs
Sampling rate        : 48.0 kHz
Frame rate       : 31.250 FPS (1536 SPF)
Compression mode     : Lossy
Stream size      : 457 MiB (2%)
Title        : DD 5.1
Language         : English
Service kind         : Complete Main
Default          : No
Forced       : No
Original source medium       : Blu-ray

Text #1
ID           : 5
Format       : UTF-8
Codec ID         : S_TEXT/UTF8
Codec ID/Info        : UTF-8 Plain Text
Duration         : 2 h 16 min
Bit rate         : 34 b/s
Count of elements        : 1274
Stream size      : 35.0 KiB (0%)
Language         : English
Default          : Yes
Forced       : No

Text #2
ID           : 6
Format       : UTF-8
Codec ID         : S_TEXT/UTF8
Codec ID/Info        : UTF-8 Plain Text
Duration         : 2 h 20 min
Bit rate         : 45 b/s
Count of elements        : 1794
Stream size      : 46.7 KiB (0%)
Title        : SDH
Language         : English
Default          : No
Forced       : No

Text #3
ID           : 7
ID in the original source medium     : 4768 (0x12A0)
Format       : PGS
Muxing mode      : zlib
Codec ID         : S_HDMV/PGS
Codec ID/Info        : Picture based subtitle format used on BDs/HD-DVDs
Duration         : 2 h 20 min
Bit rate         : 29.0 kb/s
Count of elements        : 3647
Stream size      : 29.1 MiB (0%)
Language         : English
Default          : No
Forced       : No
Original source medium       : Blu-ray

Text #4
ID           : 8
ID in the original source medium     : 4769 (0x12A1)
Format       : PGS
Muxing mode      : zlib
Codec ID         : S_HDMV/PGS
Codec ID/Info        : Picture based subtitle format used on BDs/HD-DVDs
Duration         : 2 h 21 min
Bit rate         : 18.0 kb/s
Count of elements        : 2424
Stream size      : 18.3 MiB (0%)
Language         : French
Default          : No
Forced       : No
Original source medium       : Blu-ray

Text #5
ID           : 9
ID in the original source medium     : 4770 (0x12A2)
Format       : PGS
Muxing mode      : zlib
Codec ID         : S_HDMV/PGS
Codec ID/Info        : Picture based subtitle format used on BDs/HD-DVDs
Duration         : 2 h 17 min
Bit rate         : 32.2 kb/s
Count of elements        : 3184
Stream size      : 31.7 MiB (0%)
Language         : German
Default          : No
Forced       : No
Original source medium       : Blu-ray

Text #6
ID           : 10
ID in the original source medium     : 4771 (0x12A3)
Format       : PGS
Muxing mode      : zlib
Codec ID         : S_HDMV/PGS
Codec ID/Info        : Picture based subtitle format used on BDs/HD-DVDs
Duration         : 2 h 22 min
Bit rate         : 26.9 kb/s
Count of elements        : 3626
Stream size      : 27.4 MiB (0%)
Language         : Italian
Default          : No
Forced       : No
Original source medium       : Blu-ray

Text #7
ID           : 11
ID in the original source medium     : 4772 (0x12A4)
Format       : PGS
Muxing mode      : zlib
Codec ID         : S_HDMV/PGS
Codec ID/Info        : Picture based subtitle format used on BDs/HD-DVDs
Duration         : 2 h 21 min
Bit rate         : 20.3 kb/s
Count of elements        : 2310
Stream size      : 20.6 MiB (0%)
Language         : Chinese
Default          : No
Forced       : No
Original source medium       : Blu-ray

Text #8
ID           : 12
ID in the original source medium     : 4773 (0x12A5)
Format       : PGS
Muxing mode      : zlib
Codec ID         : S_HDMV/PGS
Codec ID/Info        : Picture based subtitle format used on BDs/HD-DVDs
Duration         : 2 h 21 min
Bit rate         : 19.8 kb/s
Count of elements        : 2454
Stream size      : 20.0 MiB (0%)
Language         : Chinese
Default          : No
Forced       : No
Original source medium       : Blu-ray

Text #9
ID           : 13
ID in the original source medium     : 4774 (0x12A6)
Format       : PGS
Muxing mode      : zlib
Codec ID         : S_HDMV/PGS
Codec ID/Info        : Picture based subtitle format used on BDs/HD-DVDs
Duration         : 2 h 21 min
Bit rate         : 12.1 kb/s
Count of elements        : 2418
Stream size      : 12.2 MiB (0%)
Language         : Korean
Default          : No
Forced       : No
Original source medium       : Blu-ray

Text #10
ID           : 14
ID in the original source medium     : 4775 (0x12A7)
Format       : PGS
Muxing mode      : zlib
Codec ID         : S_HDMV/PGS
Codec ID/Info        : Picture based subtitle format used on BDs/HD-DVDs
Duration         : 2 h 21 min
Bit rate         : 19.9 kb/s
Count of elements        : 2444
Stream size      : 20.2 MiB (0%)
Language         : Spanish
Default          : No
Forced       : No
Original source medium       : Blu-ray

Text #11
ID           : 15
ID in the original source medium     : 4776 (0x12A8)
Format       : PGS
Muxing mode      : zlib
Codec ID         : S_HDMV/PGS
Codec ID/Info        : Picture based subtitle format used on BDs/HD-DVDs
Duration         : 2 h 21 min
Bit rate         : 18.9 kb/s
Count of elements        : 2046
Stream size      : 19.1 MiB (0%)
Language         : Danish
Default          : No
Forced       : No
Original source medium       : Blu-ray

Text #12
ID           : 16
ID in the original source medium     : 4777 (0x12A9)
Format       : PGS
Muxing mode      : zlib
Codec ID         : S_HDMV/PGS
Codec ID/Info        : Picture based subtitle format used on BDs/HD-DVDs
Duration         : 2 h 21 min
Bit rate         : 19.0 kb/s
Count of elements        : 2472
Stream size      : 19.2 MiB (0%)
Language         : Finnish
Default          : No
Forced       : No
Original source medium       : Blu-ray

Text #13
ID           : 17
ID in the original source medium     : 4778 (0x12AA)
Format       : PGS
Muxing mode      : zlib
Codec ID         : S_HDMV/PGS
Codec ID/Info        : Picture based subtitle format used on BDs/HD-DVDs
Duration         : 2 h 21 min
Bit rate         : 19.0 kb/s
Count of elements        : 1948
Stream size      : 19.2 MiB (0%)
Language         : Norwegian
Default          : No
Forced       : No
Original source medium       : Blu-ray

Text #14
ID           : 18
ID in the original source medium     : 4779 (0x12AB)
Format       : PGS
Muxing mode      : zlib
Codec ID         : S_HDMV/PGS
Codec ID/Info        : Picture based subtitle format used on BDs/HD-DVDs
Duration         : 2 h 21 min
Bit rate         : 17.6 kb/s
Count of elements        : 1876
Stream size      : 17.8 MiB (0%)
Language         : Swedish
Default          : No
Forced       : No
Original source medium       : Blu-ray

Menu
00:00:00.000         : en:Chapter 01
00:10:32.465         : en:Chapter 02
00:21:47.597         : en:Chapter 03
00:28:14.526         : en:Chapter 04
00:37:49.600         : en:Chapter 05
00:47:41.567         : en:Chapter 06
01:00:03.141         : en:Chapter 07
01:10:51.497         : en:Chapter 08
01:18:50.600         : en:Chapter 09
01:30:10.446         : en:Chapter 10
01:39:50.234         : en:Chapter 11
01:49:31.064         : en:Chapter 12
01:56:51.087         : en:Chapter 13
02:07:18.088         : en:Chapter 14
02:13:17.990         : en:Chapter 15



SWEATY BALLZ presents

Fantastic.Beasts.The.Secrets.of.Dumbledore.2022.2160p.BluRay.x264.8bit.SDR.DTS-HD.MA.TrueHD.7.1.Atmos-SWTYBLZ

Converted from 10 bit HDR to 8 bit SDR using tripple mixed Hable-Reinhard-JJ per scene+frame analysis algorithm

悠悠MP4_MP4电影下载_神奇动物:邓布利多之谜 Fantastic.Beasts.The.Secrets.of.Dumbledore.2022.2160p.BluRay.x264.8bit.SDR.DTS-HD.MA.TrueHD.7.1.Atmos-SWTYBLZ 24.03
悠悠MP4_MP4电影下载_神奇动物:邓布利多之谜 Fantastic.Beasts.The.Secrets.of.Dumbledore.2022.2160p.BluRay.x264.8bit.SDR.DTS-HD.MA.TrueHD.7.1.Atmos-SWTYBLZ 24.03
悠悠MP4_MP4电影下载_神奇动物:邓布利多之谜 Fantastic.Beasts.The.Secrets.of.Dumbledore.2022.2160p.BluRay.x264.8bit.SDR.DTS-HD.MA.TrueHD.7.1.Atmos-SWTYBLZ 24.03
悠悠MP4_MP4电影下载_神奇动物:邓布利多之谜 Fantastic.Beasts.The.Secrets.of.Dumbledore.2022.2160p.BluRay.x264.8bit.SDR.DTS-HD.MA.TrueHD.7.1.Atmos-SWTYBLZ 24.03
悠悠MP4_MP4电影下载_神奇动物:邓布利多之谜 Fantastic.Beasts.The.Secrets.of.Dumbledore.2022.2160p.BluRay.x264.8bit.SDR.DTS-HD.MA.TrueHD.7.1.Atmos-SWTYBLZ 24.03
悠悠MP4_MP4电影下载_神奇动物:邓布利多之谜 Fantastic.Beasts.The.Secrets.of.Dumbledore.2022.2160p.BluRay.x264.8bit.SDR.DTS-HD.MA.TrueHD.7.1.Atmos-SWTYBLZ 24.03
悠悠MP4_MP4电影下载_神奇动物:邓布利多之谜 Fantastic.Beasts.The.Secrets.of.Dumbledore.2022.2160p.BluRay.x264.8bit.SDR.DTS-HD.MA.TrueHD.7.1.Atmos-SWTYBLZ 24.03
悠悠MP4_MP4电影下载_神奇动物:邓布利多之谜 Fantastic.Beasts.The.Secrets.of.Dumbledore.2022.2160p.BluRay.x264.8bit.SDR.DTS-HD.MA.TrueHD.7.1.Atmos-SWTYBLZ 24.03
悠悠MP4_MP4电影下载_神奇动物:邓布利多之谜 Fantastic.Beasts.The.Secrets.of.Dumbledore.2022.2160p.BluRay.x264.8bit.SDR.DTS-HD.MA.TrueHD.7.1.Atmos-SWTYBLZ 24.03
悠悠MP4_MP4电影下载_神奇动物:邓布利多之谜 Fantastic.Beasts.The.Secrets.of.Dumbledore.2022.2160p.BluRay.x264.8bit.SDR.DTS-HD.MA.TrueHD.7.1.Atmos-SWTYBLZ 24.03

磁力链接

magnet:?xt=urn:btih:5d51be1434d8008fbecebf7f6ddebf53b1ead5de

上传的附件:
最新回复 (0)
返回
本站所有资源均收集自互联网,没有提供影片资源存储, 也未参与录制、上传,若本站收录的资源无意侵犯了您的权益, 请联系邮箱:gogoimgs#gmail.com(#[email protected])