[更早] [中国香港] [动作] [x265-1080P] 古惑仔2之猛龙过江 Young.and.Dangerous.2.1996.CHINESE.1080p.WEBRip.x265-VXT 1.55 GB

uump4 9天前

悠悠MP4_MP4电影下载_古惑仔2之猛龙过江 Young.and.Dangerous.2.1996.CHINESE.1080p.WEBRip.x265-VXT 1.55 GB

◎片  名 古惑仔2之猛龙过江 古惑仔2之猛龍過江 / 英雄赤女(台) / Young and Dangerous 2
◎年  代 1996
◎产  地 中国香港
◎类  别 剧情 / 动作
◎语  言 粤语 / 英语 / 汉语普通话
◎上映日期 1996-03-30(中国香港)
◎IMDb评分  6.7/10 from 1080 users
◎IMDb链接  https://www.imdb.com/title/tt0260932/
◎豆瓣评分 7.7/10 from 92067 users
◎豆瓣链接 https://movie.douban.com/subject/1473074/
◎片  长 101 分钟
◎导  演 刘伟强 Andrew Lau
◎编  剧 许莎朗 Sharon Hui
       文隽 Manfred Wong
◎主  演 郑伊健 Ekin Cheng
       陈小春 Jordan Chan
       黎姿 Gigi Lai
       邱淑贞 Chingmy Yau
       林晓峰 Jerry Lamb
       谢天华 Michael Tse
       朱永棠 Jason Chu
       黄秋生 Anthony Wong Chau-Sang
       任达华 Simon Yam
       雷震 Kelly Lai Chen
       柯受良 Sau Leung 'Blacky' Ko
       谭小环 Halina Tam
       陈豪 Moses Chan
       程小龙 Ronny Ching Siu-Lung
       罗伟佳 Wai-Kai Law
       蔡业信 Raven Choi Yip-San
       刘宝贤 Bowie Lau
       黄金棠 Kam-Tong Wong
       邵萱 Hsuan Shao
       李道谕 Do-Yu Lee
       李兆基 Siu-Kei Lee
       林尚义 Spencer Lam
       李力持 Lik-Chi Lee

◎简  介

  自从靓昆(吴镇宇 饰)企图谋夺洪兴江山事败之后,陈浩南(郑伊健 饰)声势日盛。在众人支持下,浩南誓要夺得铜锣湾的揸Fit人。树大招风,因此招来了同门大飞(黄秋生 饰)的嫉妒,大飞亦加入了铜锣湾揸Fit人的争夺。                                    
      另一方面,山鸡(陈小春 饰)与台湾教父雷公的情妇丁瑶(邱淑贞 饰)有染,返港后发现雷公有意和洪兴争夺濠江赌场,并通过东星双虎涉足其中。雷公和丁瑶及三联帮众人亦来到了香港。                                    
      丁瑶暗中拉拢大飞,合谋将雷公杀害并欲嫁祸给山鸡,浩南、山鸡等人会否坠入丁瑶精心设计的圈套中?一场腥风血雨的江湖混战即将展开!



Video
ID           : 1
Format       : HEVC
Format/Info      : High Efficiency Video Coding
Format profile       : Main [email protected]@Main
Codec ID         : hev1
Codec ID/Info        : High Efficiency Video Coding
Duration         : 1 h 39 min
Bit rate         : 2 001 kb/s
Width        : 1 920 pixels
Height       : 1 080 pixels
Display aspect ratio     : 16:9
Frame rate mode      : Constant
Frame rate       : 23.976 (24000/1001) FPS
Color space      : YUV
Chroma subsampling       : 4:2:0
Bit depth        : 10 bits
Bits/(Pixel*Frame)       : 0.040
Stream size      : 1.39 GiB (90%)
Writing library      : x265 3.3+4-rarbg-30eb4de83092:[Linux][GCC 8.3.1][64 bit] 10bit
Encoding settings        : cpuid=1111039 / frame-threads=4 / wpp / no-pmode / no-pme / no-psnr / no-ssim / log-level=2 / input-csp=1 / input-res=1920x1080 / interlace=0 / total-frames=0 / level-idc=0 / high-tier=1 / uhd-bd=0 / ref=4 / no-allow-non-conformance / no-repeat-headers / annexb / no-aud / no-hrd / info / hash=0 / no-temporal-layers / open-gop / min-keyint=23 / keyint=250 / gop-lookahead=0 / bframes=4 / b-adapt=2 / b-pyramid / bframe-bias=0 / rc-lookahead=25 / lookahead-slices=4 / scenecut=40 / hist-scenecut=0 / radl=0 / no-splice / no-intra-refresh / ctu=64 / min-cu-size=8 / rect / no-amp / max-tu-size=32 / tu-inter-depth=1 / tu-intra-depth=1 / limit-tu=0 / rdoq-level=2 / dynamic-rd=0.00 / no-ssim-rd / signhide / no-tskip / nr-intra=0 / nr-inter=0 / no-constrained-intra / strong-intra-smoothing / max-merge=3 / limit-refs=3 / limit-modes / me=3 / subme=3 / merange=57 / temporal-mvp / no-frame-dup / no-hme / weightp / no-weightb / no-analyze-src-pics / deblock=0:0 / no-sao / no-sao-non-deblock / rd=4 / selective-sao=0 / no-early-skip / rskip / no-fast-intra / no-tskip-fast / no-cu-lossless / no-b-intra / no-splitrd-skip / rdpenalty=0 / psy-rd=2.00 / psy-rdoq=1.00 / no-rd-refine / no-lossless / cbqpoffs=0 / crqpoffs=0 / rc=abr / bitrate=2000 / qcomp=0.60 / qpstep=4 / stats-write=0 / stats-read=2 / cplxblur=20.0 / qblur=0.5 / ipratio=1.40 / pbratio=1.30 / aq-mode=3 / aq-strength=1.00 / cutree / zone-count=0 / no-strict-cbr / qg-size=32 / no-rc-grain / qpmax=69 / qpmin=0 / no-const-vbv / sar=1 / overscan=0 / videoformat=5 / range=0 / colorprim=2 / transfer=2 / colormatrix=2 / chromaloc=0 / display-window=0 / cll=0,0 / min-luma=0 / max-luma=1023 / log2-max-poc-lsb=8 / vui-timing-info / vui-hrd-info / slices=1 / no-opt-qp-pps / no-opt-ref-list-length-pps / no-multi-pass-opt-rps / scenecut-bias=0.05 / hist-threshold=0.01 / no-opt-cu-delta-qp / no-aq-motion / no-hdr10 / no-hdr10-opt / no-dhdr10-opt / no-idr-recovery-sei / analysis-reuse-level=0 / analysis-save-reuse-level=0 / analysis-load-reuse-level=0 / scale-factor=0 / refine-intra=0 / refine-inter=0 / refine-mv=1 / refine-ctu-distortion=0 / no-limit-sao / ctu-info=0 / no-lowpass-dct / refine-analysis-type=0 / copy-pic=1 / max-ausize-factor=1.0 / no-dynamic-refine / no-single-sei / no-hevc-aq / no-svt / no-field / qp-adaptation-range=1.00 / no-scenecut-aware-qpconformance-window-offsets / right=0 / bottom=0
Encoded date         : UTC 2022-06-23 07:41:22
Tagged date      : UTC 2022-06-23 07:41:22
Codec configuration box      : hvcC

Audio
ID           : 2
Format       : AAC LC
Format/Info      : Advanced Audio Codec Low Complexity
Codec ID         : mp4a-40-2
Duration         : 1 h 39 min
Duration_LastFrame       : -11 ms
Bit rate mode        : Constant
Bit rate         : 224 kb/s
Channel(s)       : 2 channels
Channel layout       : L R
Sampling rate        : 48.0 kHz
Frame rate       : 46.875 FPS (1024 SPF)
Compression mode     : Lossy
Stream size      : 160 MiB (10%)
Language         : Chinese
Default          : Yes
Alternate group      : 1
Encoded date         : UTC 2022-06-23 07:41:22
Tagged date      : UTC 2022-06-23 07:41:22



悠悠MP4_MP4电影下载_古惑仔2之猛龙过江 Young.and.Dangerous.2.1996.CHINESE.1080p.WEBRip.x265-VXT 1.55 GB
悠悠MP4_MP4电影下载_古惑仔2之猛龙过江 Young.and.Dangerous.2.1996.CHINESE.1080p.WEBRip.x265-VXT 1.55 GB
悠悠MP4_MP4电影下载_古惑仔2之猛龙过江 Young.and.Dangerous.2.1996.CHINESE.1080p.WEBRip.x265-VXT 1.55 GB

磁力链接

magnet:?xt=urn:btih:2c65d0f7b8602e10f1b4cdedcd36c71d4482c6e6

上传的附件:
最新回复 (0)
返回
本站所有资源均收集自互联网,没有提供影片资源存储, 也未参与录制、上传,若本站收录的资源无意侵犯了您的权益, 请联系邮箱:gogoimgs#gmail.com(#[email protected])