[更早] [欧美] [其他] [x264-4K] 杀手的肖像 Henry.Portrait.of.a.Serial.Killer.1986.2160p.BluRay.x264.8bit.SDR.DTS-HD.MA.5.1-SWTYBLZ 67.77 GB

uump4 9天前

悠悠MP4_MP4电影下载_杀手的肖像 Henry.Portrait.of.a.Serial.Killer.1986.2160p.BluRay.x264.8bit.SDR.DTS-HD.MA.5.1-SWTYBLZ 67.77 GB

◎片  名 杀手的肖像 Henry: Portrait of a Serial Killer / 一个连环杀手的肖像 / 亨瑞 / 亨利:一个连环杀手的肖像
◎年  代 1986
◎产  地 美国
◎类  别 剧情 / 传记 / 犯罪
◎语  言 英语
◎上映日期 1986-09-24
◎IMDb评分  7.0/10 from 35950 users
◎IMDb链接  https://www.imdb.com/title/tt0099763/
◎豆瓣评分 7.5/10 from 1454 users
◎豆瓣链接 https://movie.douban.com/subject/1297599/
◎片  长 83 分钟 / Australia: 77 分钟 / Norway: 78 分钟 / Sweden: 78 分钟 / Italy: 75 分钟(edited for TV)
◎导  演 约翰·麦克诺顿 John McNaughton
◎编  剧 理查德·法尔 Richard Fire
       约翰·麦克诺顿 John McNaughton
◎主  演 迈克尔·鲁克 Michael Rooker
       埃里克·杨 Eric Young
       Erzsebet Sziky Erzsebet Sziky
       汤姆·托尔斯 Tom Towles
       Lily Monkus Lily Monkus
       Tracy Arnold Tracy Arnold

◎简  介

  HENRY热中于杀人,他把杀人当成一种艺术,在相同的时间用不同的方法杀死不同的人。他把房子租给了一个叫OTIS的人,当他的姐姐来访的时候,HENRY的杀人冲动又开始萌动了。。。。。                                    
      这部片子是美国黑色电影的代表作,在80年代末曾多次获奖,电影的表现手法及剪辑都相当精彩。                                    
      谓“黑色电影”?它是否一种类型,运动或潮流?至今仍无定论,有的学者认为“黑色电影”是一种类似西部片,音乐喜剧片,恐怖片的的片种,是一种有着深厚历史与社会背景下产生的1940-1960年间的电影潮流或运动,有的甚至认为“黑色电影”必须是黑白片,60年后便再也没有“黑色电影”了。但我个人认为“黑色电影”不是任何一种类型片,虽然其称号来自30,40年代的强盗片/犯罪片与侦探片。那“黑色电影”到底是什么呢?我个人认为,它是一种含有“黑暗或黑色”情绪与心理色调的特质电影,所以它与一些类型片如强盗片/犯罪片,侦探片(有人认为黑色侦探片是强盗片的延伸),音乐喜剧片,甚至科幻与恐怖片都会有互相重叠的部分(因为划分标准是不同的)。                                    
      黑色电影所具有的历史社会背景很大如战争,经济大萧条,政府与社会制度的弊端等;一般取材于现实生活(当然也有少量的科幻题材);描写的阶级层面并不仅限于社会底层,也可涉及中上流社会;影片中常常出现夜色下的城市,兰色的灯光洒在湿漉漉的街道上,周围是高大的水泥墙……,光色抑郁,影片人物愤世或觉醒,气质忧郁,有宿命感和悲观主义,但又往往具有独来独往不受约束,什么都不在乎的无政府主义,如果是女性角色则大多具有独立精神,甚至邪恶,放荡如通过性来操纵男人达到目的,但无论影片的主人翁是英雄还是匪徒,其结局往往是失败(因为影片总体是从批评与讽刺的角度来描写的),表现出秩序与反秩序的冲突,并抨击追求物欲产生的堕落与残暴。                                    
      这部片子还有一个译名:连环杀手的画像」听起来不是很吸引吗?



Video
ID           : 1
Format       : AVC
Format/Info      : Advanced Video Codec
Format profile       : [email protected]
Format settings      : CABAC / 5 Ref Frames
Format settings, CABAC       : Yes
Format settings, Reference frames    : 5 frames
Codec ID         : V_MPEG4/ISO/AVC
Duration         : 1 h 22 min
Bit rate         : 114 Mb/s
Width        : 2 880 pixels
Height       : 2 160 pixels
Display aspect ratio     : 4:3
Frame rate mode      : Constant
Frame rate       : 23.976 (24000/1001) FPS
Color space      : YUV
Chroma subsampling       : 4:2:0
Bit depth        : 8 bits
Scan type        : Progressive
Bits/(Pixel*Frame)       : 0.762
Stream size      : 65.7 GiB (98%)
Writing library      : x264 core 157 r2935 545de2f
Encoding settings        : cabac=1 / ref=5 / deblock=1:-1:-1 / analyse=0x3:0x113 / me=umh / subme=10 / psy=1 / psy_rd=1.00:0.15 / mixed_ref=1 / me_range=48 / chroma_me=1 / trellis=2 / 8x8dct=1 / cqm=0 / deadzone=21,11 / fast_pskip=1 / chroma_qp_offset=-3 / threads=48 / lookahead_threads=4 / sliced_threads=0 / nr=0 / decimate=0 / interlaced=0 / bluray_compat=0 / constrained_intra=0 / bframes=3 / b_pyramid=2 / b_adapt=2 / b_bias=0 / direct=3 / weightb=1 / open_gop=0 / weightp=2 / keyint=250 / keyint_min=23 / scenecut=40 / intra_refresh=0 / rc_lookahead=50 / rc=crf / mbtree=1 / crf=22.0 / qcomp=0.60 / qpmin=0 / qpmax=69 / qpstep=4 / ip_ratio=1.40 / aq=1:1.00
Default          : Yes
Forced       : No

Audio #1
ID           : 2
ID in the original source medium     : 4353 (0x1101)
Format       : DTS XLL
Format/Info      : Digital Theater Systems
Commercial name      : DTS-HD Master Audio
Codec ID         : A_DTS
Duration         : 1 h 22 min
Bit rate mode        : Variable
Bit rate         : 1 759 kb/s
Channel(s)       : 6 channels
Channel layout       : C L R Ls Rs LFE
Sampling rate        : 48.0 kHz
Frame rate       : 93.750 FPS (512 SPF)
Bit depth        : 16 bits
Compression mode     : Lossless
Stream size      : 1.01 GiB (2%)
Title        : DTS-HD MA 5.1
Language         : English
Default          : Yes
Forced       : No
Original source medium       : Blu-ray

Audio #2
ID           : 3
Format       : AC-3
Format/Info      : Audio Coding 3
Commercial name      : Dolby Digital
Codec ID         : A_AC3
Duration         : 1 h 22 min
Bit rate mode        : Constant
Bit rate         : 640 kb/s
Channel(s)       : 6 channels
Channel layout       : L R C LFE Ls Rs
Sampling rate        : 48.0 kHz
Frame rate       : 31.250 FPS (1536 SPF)
Compression mode     : Lossy
Stream size      : 377 MiB (1%)
Title        : DD 5.1
Language         : English
Service kind         : Complete Main
Default          : No
Forced       : No

Text #1
ID           : 4
Format       : UTF-8
Codec ID         : S_TEXT/UTF8
Codec ID/Info        : UTF-8 Plain Text
Duration         : 1 h 15 min
Bit rate         : 41 b/s
Count of elements        : 951
Stream size      : 23.2 KiB (0%)
Language         : English
Default          : Yes
Forced       : No

Text #2
ID           : 5
ID in the original source medium     : 4768 (0x12A0)
Format       : PGS
Muxing mode      : zlib
Codec ID         : S_HDMV/PGS
Codec ID/Info        : Picture based subtitle format used on BDs/HD-DVDs
Duration         : 1 h 15 min
Bit rate         : 24.6 kb/s
Count of elements        : 1348
Stream size      : 13.3 MiB (0%)
Language         : German
Default          : No
Forced       : No
Original source medium       : Blu-ray

Text #3
ID           : 6
ID in the original source medium     : 4769 (0x12A1)
Format       : PGS
Muxing mode      : zlib
Codec ID         : S_HDMV/PGS
Codec ID/Info        : Picture based subtitle format used on BDs/HD-DVDs
Duration         : 1 h 20 min
Bit rate         : 26.6 kb/s
Count of elements        : 1660
Stream size      : 15.4 MiB (0%)
Language         : German
Default          : No
Forced       : No
Original source medium       : Blu-ray

Text #4
ID           : 7
ID in the original source medium     : 4770 (0x12A2)
Format       : PGS
Muxing mode      : zlib
Codec ID         : S_HDMV/PGS
Codec ID/Info        : Picture based subtitle format used on BDs/HD-DVDs
Duration         : 1 h 15 min
Bit rate         : 25.4 kb/s
Count of elements        : 1912
Stream size      : 13.8 MiB (0%)
Language         : English
Default          : No
Forced       : No
Original source medium       : Blu-ray

Text #5
ID           : 8
ID in the original source medium     : 4771 (0x12A3)
Format       : PGS
Muxing mode      : zlib
Codec ID         : S_HDMV/PGS
Codec ID/Info        : Picture based subtitle format used on BDs/HD-DVDs
Duration         : 1 h 20 min
Bit rate         : 28.2 kb/s
Count of elements        : 2266
Stream size      : 16.3 MiB (0%)
Language         : English
Default          : No
Forced       : No
Original source medium       : Blu-ray

Text #6
ID           : 9
ID in the original source medium     : 4772 (0x12A4)
Format       : PGS
Muxing mode      : zlib
Codec ID         : S_HDMV/PGS
Codec ID/Info        : Picture based subtitle format used on BDs/HD-DVDs
Duration         : 1 h 22 min
Bit rate         : 68.8 kb/s
Count of elements        : 2211
Stream size      : 40.4 MiB (0%)
Language         : German
Default          : No
Forced       : No
Original source medium       : Blu-ray

Text #7
ID           : 10
ID in the original source medium     : 4773 (0x12A5)
Format       : PGS
Muxing mode      : zlib
Codec ID         : S_HDMV/PGS
Codec ID/Info        : Picture based subtitle format used on BDs/HD-DVDs
Duration         : 1 h 22 min
Bit rate         : 61.1 kb/s
Count of elements        : 2148
Stream size      : 35.9 MiB (0%)
Language         : English
Default          : No
Forced       : No
Original source medium       : Blu-ray

Menu
00:00:00.000         : en:Chapter 01
00:01:32.092         : en:Chapter 02
00:09:02.166         : en:Chapter 03
00:13:20.299         : en:Chapter 04
00:20:32.481         : en:Chapter 05
00:26:51.359         : en:Chapter 06
00:32:43.086         : en:Chapter 07
00:38:40.026         : en:Chapter 08
00:43:34.028         : en:Chapter 09
00:47:26.885         : en:Chapter 10
00:53:20.280         : en:Chapter 11
00:57:24.774         : en:Chapter 12
01:04:05.049         : en:Chapter 13
01:09:17.695         : en:Chapter 14
01:13:17.101         : en:Chapter 15
01:18:39.047         : en:Chapter 16
01:22:20.602         : en:Chapter 17



SWEATY BALLZ presents

Henry.Portrait.of.a.Serial.Killer.1986.2160p.BluRay.x264.8bit.SDR.DTS-HD.MA.5.1-SWTYBLZ

Converted from 10 bit HDR to 8 bit SDR using tripple mixed Hable-Reinhard-JJ per scene+frame analysis algorithm

悠悠MP4_MP4电影下载_杀手的肖像 Henry.Portrait.of.a.Serial.Killer.1986.2160p.BluRay.x264.8bit.SDR.DTS-HD.MA.5.1-SWTYBLZ 67.77 GB
悠悠MP4_MP4电影下载_杀手的肖像 Henry.Portrait.of.a.Serial.Killer.1986.2160p.BluRay.x264.8bit.SDR.DTS-HD.MA.5.1-SWTYBLZ 67.77 GB
悠悠MP4_MP4电影下载_杀手的肖像 Henry.Portrait.of.a.Serial.Killer.1986.2160p.BluRay.x264.8bit.SDR.DTS-HD.MA.5.1-SWTYBLZ 67.77 GB
悠悠MP4_MP4电影下载_杀手的肖像 Henry.Portrait.of.a.Serial.Killer.1986.2160p.BluRay.x264.8bit.SDR.DTS-HD.MA.5.1-SWTYBLZ 67.77 GB
悠悠MP4_MP4电影下载_杀手的肖像 Henry.Portrait.of.a.Serial.Killer.1986.2160p.BluRay.x264.8bit.SDR.DTS-HD.MA.5.1-SWTYBLZ 67.77 GB
悠悠MP4_MP4电影下载_杀手的肖像 Henry.Portrait.of.a.Serial.Killer.1986.2160p.BluRay.x264.8bit.SDR.DTS-HD.MA.5.1-SWTYBLZ 67.77 GB
悠悠MP4_MP4电影下载_杀手的肖像 Henry.Portrait.of.a.Serial.Killer.1986.2160p.BluRay.x264.8bit.SDR.DTS-HD.MA.5.1-SWTYBLZ 67.77 GB
悠悠MP4_MP4电影下载_杀手的肖像 Henry.Portrait.of.a.Serial.Killer.1986.2160p.BluRay.x264.8bit.SDR.DTS-HD.MA.5.1-SWTYBLZ 67.77 GB
悠悠MP4_MP4电影下载_杀手的肖像 Henry.Portrait.of.a.Serial.Killer.1986.2160p.BluRay.x264.8bit.SDR.DTS-HD.MA.5.1-SWTYBLZ 67.77 GB
悠悠MP4_MP4电影下载_杀手的肖像 Henry.Portrait.of.a.Serial.Killer.1986.2160p.BluRay.x264.8bit.SDR.DTS-HD.MA.5.1-SWTYBLZ 67.77 GB

磁力链接

magnet:?xt=urn:btih:9d853e118ad274fa0539630988fc7b803598df3d

上传的附件:
最新回复 (0)
返回
本站所有资源均收集自互联网,没有提供影片资源存储, 也未参与录制、上传,若本站收录的资源无意侵犯了您的权益, 请联系邮箱:gogoimgs#gmail.com(#[email protected])