[2021] [欧美] [犯罪] [x265-1080P] 替代者 The.Replacement.2021.SPANISH.1080p.WEBRip.x265-VXT 1.76 GB

uump4 9天前

悠悠MP4_MP4电影下载_替代者 The.Replacement.2021.SPANISH.1080p.WEBRip.x265-VXT 1.76 GB

◎片  名 替代者 El sustituto / The Replacement
◎年  代 2021
◎产  地 西班牙
◎类  别 动作 / 犯罪 / 冒险
◎语  言 西班牙语
◎上映日期 
◎IMDb评分  6.2/10 from 626 users
◎IMDb链接  https://www.imdb.com/title/tt11579538/
◎豆瓣评分 /10 from 0 users
◎豆瓣链接 https://movie.douban.com/subject/35373993/
◎片  长 117分钟
◎导  演 Óscar Aibar Óscar Aibar
◎编  剧 Óscar Aibar Óscar Aibar
◎主  演 里卡多·戈麦兹 Ricardo Gómez
       佩雷·庞塞 Pere Ponce
       佩普·科特斯 Pep Cortés
       薇姬·卢恩戈 Vicky Luengo
       华金·克莱门特 Joaquín Climent
       弗兰克·费斯 Frank Feys
       布鲁娜·库希 Bruna Cusí
       苏西·桑切斯 Susi Sánchez
       吉列尔莫·蒙特西诺斯 Guillermo Montesinos
       马克·阿尔莫多瓦 Marc Almodovar

◎简  介

  1982年,一位在马德里最贫穷的街区长大的年轻警察来到一个海滨城镇工作,希望能在这里治好女儿的病,同时获得平静和安宁。然而,一到那里,他就发现前任警官的谋杀案案情仍存在疑点,并被卷入案件的调查中。调查将他引向一家海滩酒店,一众因反人类罪行而被几个国家通缉的前纳粹军官在那里过着宁静的天堂般的生活。                                    
      1982. A young cop who grew up around Madrid's toughest neighborhood takes an assignment in a coastal town in the hope of not only curing his daughter's illness but also finding some peace and quiet. However, once there, he finds himself embroiled in the enquiry into the strange circumstances of his predecessor's murder. The investigation will lead him to a beach hotel where a community of former Nazi officers - claimed by several countries for crimes against humanity - lives a peaceful and paradisiacal life.



Video
ID           : 1
Format       : HEVC
Format/Info      : High Efficiency Video Coding
Format profile       : Main [email protected]@Main
Codec ID         : hev1
Codec ID/Info        : High Efficiency Video Coding
Duration         : 1 h 53 min
Bit rate         : 2 000 kb/s
Width        : 1 920 pixels
Height       : 804 pixels
Display aspect ratio     : 2.40:1
Frame rate mode      : Constant
Frame rate       : 25.000 FPS
Color space      : YUV
Chroma subsampling       : 4:2:0
Bit depth        : 10 bits
Bits/(Pixel*Frame)       : 0.052
Stream size      : 1.58 GiB (90%)
Writing library      : x265 3.3+4-rarbg-30eb4de83092:[Linux][GCC 8.3.1][64 bit] 10bit
Encoding settings        : cpuid=1111039 / frame-threads=4 / wpp / no-pmode / no-pme / no-psnr / no-ssim / log-level=2 / input-csp=1 / input-res=1920x804 / interlace=0 / total-frames=0 / level-idc=0 / high-tier=1 / uhd-bd=0 / ref=4 / no-allow-non-conformance / no-repeat-headers / annexb / no-aud / no-hrd / info / hash=0 / no-temporal-layers / open-gop / min-keyint=25 / keyint=250 / gop-lookahead=0 / bframes=4 / b-adapt=2 / b-pyramid / bframe-bias=0 / rc-lookahead=25 / lookahead-slices=4 / scenecut=40 / hist-scenecut=0 / radl=0 / no-splice / no-intra-refresh / ctu=64 / min-cu-size=8 / rect / no-amp / max-tu-size=32 / tu-inter-depth=1 / tu-intra-depth=1 / limit-tu=0 / rdoq-level=2 / dynamic-rd=0.00 / no-ssim-rd / signhide / no-tskip / nr-intra=0 / nr-inter=0 / no-constrained-intra / strong-intra-smoothing / max-merge=3 / limit-refs=3 / limit-modes / me=3 / subme=3 / merange=57 / temporal-mvp / no-frame-dup / no-hme / weightp / no-weightb / no-analyze-src-pics / deblock=0:0 / no-sao / no-sao-non-deblock / rd=4 / selective-sao=0 / no-early-skip / rskip / no-fast-intra / no-tskip-fast / no-cu-lossless / no-b-intra / no-splitrd-skip / rdpenalty=0 / psy-rd=2.00 / psy-rdoq=1.00 / no-rd-refine / no-lossless / cbqpoffs=0 / crqpoffs=0 / rc=abr / bitrate=2000 / qcomp=0.60 / qpstep=4 / stats-write=0 / stats-read=2 / cplxblur=20.0 / qblur=0.5 / ipratio=1.40 / pbratio=1.30 / aq-mode=3 / aq-strength=1.00 / cutree / zone-count=0 / no-strict-cbr / qg-size=32 / no-rc-grain / qpmax=69 / qpmin=0 / no-const-vbv / sar=1 / overscan=0 / videoformat=5 / range=0 / colorprim=2 / transfer=2 / colormatrix=2 / chromaloc=0 / display-window=0 / cll=0,0 / min-luma=0 / max-luma=1023 / log2-max-poc-lsb=8 / vui-timing-info / vui-hrd-info / slices=1 / no-opt-qp-pps / no-opt-ref-list-length-pps / no-multi-pass-opt-rps / scenecut-bias=0.05 / hist-threshold=0.01 / no-opt-cu-delta-qp / no-aq-motion / no-hdr10 / no-hdr10-opt / no-dhdr10-opt / no-idr-recovery-sei / analysis-reuse-level=0 / analysis-save-reuse-level=0 / analysis-load-reuse-level=0 / scale-factor=0 / refine-intra=0 / refine-inter=0 / refine-mv=1 / refine-ctu-distortion=0 / no-limit-sao / ctu-info=0 / no-lowpass-dct / refine-analysis-type=0 / copy-pic=1 / max-ausize-factor=1.0 / no-dynamic-refine / no-single-sei / no-hevc-aq / no-svt / no-field / qp-adaptation-range=1.00 / no-scenecut-aware-qpconformance-window-offsets / right=0 / bottom=0
Encoded date         : UTC 2022-06-23 06:29:27
Tagged date      : UTC 2022-06-23 06:29:27
Codec configuration box      : hvcC

Audio
ID           : 2
Format       : AAC LC
Format/Info      : Advanced Audio Codec Low Complexity
Codec ID         : mp4a-40-2
Duration         : 1 h 53 min
Bit rate mode        : Constant
Bit rate         : 224 kb/s
Channel(s)       : 6 channels
Channel layout       : C L R Ls Rs LFE
Sampling rate        : 48.0 kHz
Frame rate       : 46.875 FPS (1024 SPF)
Compression mode     : Lossy
Stream size      : 181 MiB (10%)
Language         : Spanish
Default          : Yes
Alternate group      : 1
Encoded date         : UTC 2022-06-23 06:29:27
Tagged date      : UTC 2022-06-23 06:29:27



悠悠MP4_MP4电影下载_替代者 The.Replacement.2021.SPANISH.1080p.WEBRip.x265-VXT 1.76 GB
悠悠MP4_MP4电影下载_替代者 The.Replacement.2021.SPANISH.1080p.WEBRip.x265-VXT 1.76 GB
悠悠MP4_MP4电影下载_替代者 The.Replacement.2021.SPANISH.1080p.WEBRip.x265-VXT 1.76 GB

磁力链接

magnet:?xt=urn:btih:a2d22fe7c5cde01adefacba8b5d2bc032a7cb0c4

上传的附件:
最新回复 (0)
返回
本站所有资源均收集自互联网,没有提供影片资源存储, 也未参与录制、上传,若本站收录的资源无意侵犯了您的权益, 请联系邮箱:gogoimgs#gmail.com(#[email protected])