[更早] [中国香港] [动作] [x265-1080P] 新龙争虎斗 Kickboxers.Tears.1992.CHINESE.1080p.WEBRip.x265-VXT 1.35 GB

uump4 9天前

悠悠MP4_MP4电影下载_新龙争虎斗 Kickboxers.Tears.1992.CHINESE.1080p.WEBRip.x265-VXT 1.35 GB

◎片  名 新龙争虎斗 新龍爭虎鬥 / Kick Boxer's Tears / Kickboxer's Tears
◎年  代 1992
◎产  地 中国香港
◎类  别 剧情 / 动作
◎语  言 粤语
◎上映日期 1992-05-21(中国香港)
◎IMDb评分  6.5/10 from 93 users
◎IMDb链接  https://www.imdb.com/title/tt0105860/
◎豆瓣评分 5.9/10 from 232 users
◎豆瓣链接 https://movie.douban.com/subject/4212211/
◎片  长 87 分钟
◎导  演 
◎编  剧 
◎主  演 李赛凤 Moon Lee
       林俊贤 Wilson Lam
       郑浩南 Mark Cheng
       大岛由加利 Yukari Ôshima
       龙方 Fong Lung
       黄一山 Gabriel Wong
       刘观伟 Ricky Lau
       周比利 Billy Chow
       卢惠光 Ken Lo
       沈威 Wai Shum
       韩平 Ping Han
       卢雄 Paul Lo
       田村由香里 Yukari Tamura
       萧德虎 Siu Tak-Foo

◎简  介

  中国南拳冠军李凤之兄虎于代表拳馆出赛时,遭对手龙老板手下拳师周施计下惨死。风为办理兄后事而暂住拳馆中。虎徒弟南及流氓亚贤同爱慕风,闹出不少笑话。当风知道南打假拳以博取微利偿还拳馆债务,决定以30万元作赌注,跟杀兄之周决斗。比赛中,凤发现对手和龙老板串谋再出古惹以谋彩金,奋战下击毙周,令龙老板人财两失,誓要报仇,掳走南以威胁凤再决战。凤和贤遂于擂台上下,和龙老板展开一场火爆之追逐战……



Video
ID           : 1
Format       : HEVC
Format/Info      : High Efficiency Video Coding
Format profile       : Main [email protected]@Main
Codec ID         : hev1
Codec ID/Info        : High Efficiency Video Coding
Duration         : 1 h 26 min
Bit rate         : 2 000 kb/s
Width        : 1 920 pixels
Height       : 1 080 pixels
Display aspect ratio     : 16:9
Frame rate mode      : Constant
Frame rate       : 29.970 (30000/1001) FPS
Color space      : YUV
Chroma subsampling       : 4:2:0
Bit depth        : 10 bits
Bits/(Pixel*Frame)       : 0.032
Stream size      : 1.21 GiB (90%)
Writing library      : x265 3.3+4-rarbg-30eb4de83092:[Linux][GCC 8.3.1][64 bit] 10bit
Encoding settings        : cpuid=1111039 / frame-threads=4 / wpp / no-pmode / no-pme / no-psnr / no-ssim / log-level=2 / input-csp=1 / input-res=1920x1080 / interlace=0 / total-frames=0 / level-idc=0 / high-tier=1 / uhd-bd=0 / ref=4 / no-allow-non-conformance / no-repeat-headers / annexb / no-aud / no-hrd / info / hash=0 / no-temporal-layers / open-gop / min-keyint=25 / keyint=250 / gop-lookahead=0 / bframes=4 / b-adapt=2 / b-pyramid / bframe-bias=0 / rc-lookahead=25 / lookahead-slices=4 / scenecut=40 / hist-scenecut=0 / radl=0 / no-splice / no-intra-refresh / ctu=64 / min-cu-size=8 / rect / no-amp / max-tu-size=32 / tu-inter-depth=1 / tu-intra-depth=1 / limit-tu=0 / rdoq-level=2 / dynamic-rd=0.00 / no-ssim-rd / signhide / no-tskip / nr-intra=0 / nr-inter=0 / no-constrained-intra / strong-intra-smoothing / max-merge=3 / limit-refs=3 / limit-modes / me=3 / subme=3 / merange=57 / temporal-mvp / no-frame-dup / no-hme / weightp / no-weightb / no-analyze-src-pics / deblock=0:0 / no-sao / no-sao-non-deblock / rd=4 / selective-sao=0 / no-early-skip / rskip / no-fast-intra / no-tskip-fast / no-cu-lossless / no-b-intra / no-splitrd-skip / rdpenalty=0 / psy-rd=2.00 / psy-rdoq=1.00 / no-rd-refine / no-lossless / cbqpoffs=0 / crqpoffs=0 / rc=abr / bitrate=2000 / qcomp=0.60 / qpstep=4 / stats-write=0 / stats-read=2 / cplxblur=20.0 / qblur=0.5 / ipratio=1.40 / pbratio=1.30 / aq-mode=3 / aq-strength=1.00 / cutree / zone-count=0 / no-strict-cbr / qg-size=32 / no-rc-grain / qpmax=69 / qpmin=0 / no-const-vbv / sar=1 / overscan=0 / videoformat=5 / range=0 / colorprim=2 / transfer=2 / colormatrix=2 / chromaloc=0 / display-window=0 / cll=0,0 / min-luma=0 / max-luma=1023 / log2-max-poc-lsb=8 / vui-timing-info / vui-hrd-info / slices=1 / no-opt-qp-pps / no-opt-ref-list-length-pps / no-multi-pass-opt-rps / scenecut-bias=0.05 / hist-threshold=0.01 / no-opt-cu-delta-qp / no-aq-motion / no-hdr10 / no-hdr10-opt / no-dhdr10-opt / no-idr-recovery-sei / analysis-reuse-level=0 / analysis-save-reuse-level=0 / analysis-load-reuse-level=0 / scale-factor=0 / refine-intra=0 / refine-inter=0 / refine-mv=1 / refine-ctu-distortion=0 / no-limit-sao / ctu-info=0 / no-lowpass-dct / refine-analysis-type=0 / copy-pic=1 / max-ausize-factor=1.0 / no-dynamic-refine / no-single-sei / no-hevc-aq / no-svt / no-field / qp-adaptation-range=1.00 / no-scenecut-aware-qpconformance-window-offsets / right=0 / bottom=0
Encoded date         : UTC 2022-06-23 06:34:51
Tagged date      : UTC 2022-06-23 06:34:51
Codec configuration box      : hvcC

Audio
ID           : 2
Format       : AAC LC
Format/Info      : Advanced Audio Codec Low Complexity
Codec ID         : mp4a-40-2
Duration         : 1 h 26 min
Bit rate mode        : Constant
Bit rate         : 224 kb/s
Channel(s)       : 2 channels
Channel layout       : L R
Sampling rate        : 48.0 kHz
Frame rate       : 46.875 FPS (1024 SPF)
Compression mode     : Lossy
Stream size      : 139 MiB (10%)
Language         : Chinese
Default          : Yes
Alternate group      : 1
Encoded date         : UTC 2022-06-23 06:34:51
Tagged date      : UTC 2022-06-23 06:34:51



悠悠MP4_MP4电影下载_新龙争虎斗 Kickboxers.Tears.1992.CHINESE.1080p.WEBRip.x265-VXT 1.35 GB
悠悠MP4_MP4电影下载_新龙争虎斗 Kickboxers.Tears.1992.CHINESE.1080p.WEBRip.x265-VXT 1.35 GB
悠悠MP4_MP4电影下载_新龙争虎斗 Kickboxers.Tears.1992.CHINESE.1080p.WEBRip.x265-VXT 1.35 GB

磁力链接

magnet:?xt=urn:btih:8f4a9fabd6d08aef258ecfc35a0e3327a351fef8

上传的附件:
最新回复 (0)
返回
本站所有资源均收集自互联网,没有提供影片资源存储, 也未参与录制、上传,若本站收录的资源无意侵犯了您的权益, 请联系邮箱:gogoimgs#gmail.com(#[email protected])