[2010] [欧美] [动画] [x265-1080P] 量子战争:卡西尼空间之旅 Quantum.Quest.A.Cassini.Space.Odyssey.2010.1080p.WEBRip.x265-RARBG 798.76 MB

uump4 9天前



◎片  名 量子战争:卡西尼空间之旅 Quantum Quest: A Cassini Space Odyssey
◎年  代 2010
◎产  地 美国
◎类  别 科幻 / 动画 / 冒险
◎语  言 英语
◎上映日期 2010-01-13
◎IMDb评分  5.1/10 from 381 users
◎IMDb链接  https://www.imdb.com/title/tt0312305/
◎豆瓣评分 /10 from 0 users
◎豆瓣链接 https://movie.douban.com/subject/1946872/
◎片  长 
◎导  演 丹·圣皮埃尔 Dan St. Pierre
◎编  剧 
◎主  演 克里斯·派恩 Chris Pine
       塞缪尔·杰克逊 Samuel L. Jackson
       罗伯特·皮卡多 Robert Picardo
       尼尔·阿姆斯特朗 Neil Armstrong
       杰森·哈里斯 Jason Harris
       汤姆·肯尼 Tom Kenny
       Casey Kasem Casey Kasem
       史宾塞·布瑞斯林 Spencer Breslin
       海登·克里斯滕森 Hayden Christensen
       詹妮娜·加万卡 Janina Gavankar
       布伦特·斯皮内 Brent Spiner
       吴珊卓 Sandra Oh
       阿曼达·皮特 Amanda Peet
       詹姆斯·厄尔·琼斯 James Earl Jones
       盖瑞·格拉汉姆 Gary Graham
       道格·琼斯 Doug Jones
       阿比盖尔·布雷斯林 Abigail Breslin
       马克·哈米尔 Mark Hamill
       杰森·亚历山大 Jason Alexander
       威廉·夏特纳 William Shatner

◎简  介

  想象一下,两位《星际迷航记》里的柯克船长(Captain Kirks),两位《星球大战》里的黑武士(Darth Vaders),以及曾乘坐阿波罗11号宇宙飞船登陆月球的飞行员阿姆斯特朗(Neil Armstrong)的声音出现在一部电影里,会是什么情况?美国国家宇航局(NASA)将首度联手中国台湾太极动画公司(Digimax),推出立体动画电影《量子战争》(Quantum Quest),该片片长45分钟,预计耗资1000万美元,将于今年9月率先登陆大银幕。                                    
      这部独立制作电影配音阵容强大,四位主要配音演员包括《星际迷航记》(Star Trek)系列电视剧和电影中柯克船长的扮演者、老牌好莱坞影星威廉·沙特纳(William Shatner),在将于明年上映的新版《星际迷航记》中扮演柯克船长一角的新人克里斯·派恩(Chris Pine),在《星球大战》电影中为黑武士配音的詹姆士·厄尔·琼斯(James Earl Jones),以及在《星战前传》中扮演黑武士前身天行者阿纳金的影星海登·克里斯滕森(Hayden Christensen)。另外,乘坐阿波罗11号宇宙飞船首位登陆月球的宇航员尼尔·阿姆斯特朗也将为影片“献声”,成就其首次的“触电”作品。                                    
      此外,该片的超豪华配音阵容中还包括影星塞缪尔·L.杰克逊(Samuel L. Jackson)、阿曼达·皮特(Amanda Peet)、贾森·亚历山大(Jason Alexander)、吴珊卓(Sandra Oh)、马克·哈米尔(Mark Hamill),以及“阳光小美女”阿比盖尔·布莱斯林(Abigail Breslin)等。                                    
      这部长约45分钟的立体电影是一部科教娱乐片,由最先进的3D电脑动画技术制作,将于今年9月率先登陆北美的IMAX院线,之后再进入普通影院放映。《量子战争》由丹·圣皮埃尔(Dan St. Pierre)和哈利·克鲁尔(Harry Kloor)执导,将带领观众进入太阳系,在星星之间遨游。影片讲述了一个科幻故事——名叫一个戴夫的太阳光子(克里斯·派恩配音)拒绝长大,不愿离开太阳母亲,之后他却卷入了一场银河战争。沙特纳和哈米尔将分别为交战双方的头领“核”与“空”配音。片中所采用的太阳系空间影像全部来自美国国家宇航局(NASA)的喷气推进天文望远镜实拍图像。                                    
      这部影片最早由美国国家宇航局牵头,在1996年时就提出了构想。当年,美国国家宇航局发射了卡西尼-惠更斯号土星探测器。此次影片《量子战争》中所采用的空间图像素材,就来自这一土星探测器上的天文望远镜所拍摄的图像。直到去年该土星探测器成功完成任务,传回图像,该片才正式开始制作。



Video
ID           : 1
Format       : HEVC
Format/Info      : High Efficiency Video Coding
Format profile       : Main [email protected]@Main
Codec ID         : hev1
Codec ID/Info        : High Efficiency Video Coding
Duration         : 50 min 0 s
Bit rate         : 2 003 kb/s
Width        : 1 920 pixels
Height       : 1 080 pixels
Display aspect ratio     : 16:9
Frame rate mode      : Constant
Frame rate       : 23.976 (24000/1001) FPS
Color space      : YUV
Chroma subsampling       : 4:2:0
Bit depth        : 10 bits
Bits/(Pixel*Frame)       : 0.040
Stream size      : 717 MiB (90%)
Writing library      : x265 3.3+4-rarbg-30eb4de83092:[Linux][GCC 8.3.1][64 bit] 10bit
Encoding settings        : cpuid=1111039 / frame-threads=4 / wpp / no-pmode / no-pme / no-psnr / no-ssim / log-level=2 / input-csp=1 / input-res=1920x1080 / interlace=0 / total-frames=0 / level-idc=0 / high-tier=1 / uhd-bd=0 / ref=4 / no-allow-non-conformance / no-repeat-headers / annexb / no-aud / no-hrd / info / hash=0 / no-temporal-layers / open-gop / min-keyint=23 / keyint=250 / gop-lookahead=0 / bframes=4 / b-adapt=2 / b-pyramid / bframe-bias=0 / rc-lookahead=25 / lookahead-slices=4 / scenecut=40 / hist-scenecut=0 / radl=0 / no-splice / no-intra-refresh / ctu=64 / min-cu-size=8 / rect / no-amp / max-tu-size=32 / tu-inter-depth=1 / tu-intra-depth=1 / limit-tu=0 / rdoq-level=2 / dynamic-rd=0.00 / no-ssim-rd / signhide / no-tskip / nr-intra=0 / nr-inter=0 / no-constrained-intra / strong-intra-smoothing / max-merge=3 / limit-refs=3 / limit-modes / me=3 / subme=3 / merange=57 / temporal-mvp / no-frame-dup / no-hme / weightp / no-weightb / no-analyze-src-pics / deblock=0:0 / no-sao / no-sao-non-deblock / rd=4 / selective-sao=0 / no-early-skip / rskip / no-fast-intra / no-tskip-fast / no-cu-lossless / no-b-intra / no-splitrd-skip / rdpenalty=0 / psy-rd=2.00 / psy-rdoq=1.00 / no-rd-refine / no-lossless / cbqpoffs=0 / crqpoffs=0 / rc=abr / bitrate=2000 / qcomp=0.60 / qpstep=4 / stats-write=0 / stats-read=2 / cplxblur=20.0 / qblur=0.5 / ipratio=1.40 / pbratio=1.30 / aq-mode=3 / aq-strength=1.00 / cutree / zone-count=0 / no-strict-cbr / qg-size=32 / no-rc-grain / qpmax=69 / qpmin=0 / no-const-vbv / sar=1 / overscan=0 / videoformat=5 / range=0 / colorprim=2 / transfer=2 / colormatrix=2 / chromaloc=0 / display-window=0 / cll=0,0 / min-luma=0 / max-luma=1023 / log2-max-poc-lsb=8 / vui-timing-info / vui-hrd-info / slices=1 / no-opt-qp-pps / no-opt-ref-list-length-pps / no-multi-pass-opt-rps / scenecut-bias=0.05 / hist-threshold=0.01 / no-opt-cu-delta-qp / no-aq-motion / no-hdr10 / no-hdr10-opt / no-dhdr10-opt / no-idr-recovery-sei / analysis-reuse-level=0 / analysis-save-reuse-level=0 / analysis-load-reuse-level=0 / scale-factor=0 / refine-intra=0 / refine-inter=0 / refine-mv=1 / refine-ctu-distortion=0 / no-limit-sao / ctu-info=0 / no-lowpass-dct / refine-analysis-type=0 / copy-pic=1 / max-ausize-factor=1.0 / no-dynamic-refine / no-single-sei / no-hevc-aq / no-svt / no-field / qp-adaptation-range=1.00 / no-scenecut-aware-qpconformance-window-offsets / right=0 / bottom=0
Encoded date         : UTC 2022-06-23 02:52:25
Tagged date      : UTC 2022-06-23 02:52:25
Codec configuration box      : hvcC

Audio
ID           : 2
Format       : AAC LC
Format/Info      : Advanced Audio Codec Low Complexity
Codec ID         : mp4a-40-2
Duration         : 50 min 0 s
Bit rate mode        : Constant
Bit rate         : 224 kb/s
Channel(s)       : 6 channels
Channel layout       : C L R Ls Rs LFE
Sampling rate        : 48.0 kHz
Frame rate       : 46.875 FPS (1024 SPF)
Compression mode     : Lossy
Stream size      : 80.1 MiB (10%)
Language         : English
Default          : Yes
Alternate group      : 1
Encoded date         : UTC 2022-06-23 02:52:25
Tagged date      : UTC 2022-06-23 02:52:25



悠悠MP4_MP4电影下载_量子战争:卡西尼空间之旅 Quantum.Quest.A.Cassini.Space.Odyssey.2010.1080p.WEBRip.x265-RARBG 798.76 MB
悠悠MP4_MP4电影下载_量子战争:卡西尼空间之旅 Quantum.Quest.A.Cassini.Space.Odyssey.2010.1080p.WEBRip.x265-RARBG 798.76 MB
悠悠MP4_MP4电影下载_量子战争:卡西尼空间之旅 Quantum.Quest.A.Cassini.Space.Odyssey.2010.1080p.WEBRip.x265-RARBG 798.76 MB

磁力链接

magnet:?xt=urn:btih:e483c2e728beeb46c6245ff78570fca0c0c445ac

上传的附件:
最新回复 (0)
返回
本站所有资源均收集自互联网,没有提供影片资源存储, 也未参与录制、上传,若本站收录的资源无意侵犯了您的权益, 请联系邮箱:gogoimgs#gmail.com(#[email protected])