[2016] [欧美] [剧情] [x264-1080P] 李尔王 Royal.Shakespeare.Company.King.Lear.2016.1080p.AMZN.WEBRip.DDP5.1.x264-ECLiPSE 13.04 GB

uump4 1月前

悠悠MP4_MP4电影下载_李尔王 Royal.Shakespeare.Company.King.Lear.2016.1080p.AMZN.WEBRip.DDP5.1.x264-ECLiPSE 13.04 GB

◎片  名 李尔王 Royal Shakespeare Company: King Lear / 皇家莎士比亚剧团现场:李尔王
◎年  代 2016
◎产  地 英国
◎类  别 剧情
◎语  言 英语
◎上映日期 2016-10-12(英国)
◎IMDb评分  7.5/10 from 57 users
◎IMDb链接  https://www.imdb.com/title/tt6146394/
◎豆瓣评分 8.3/10 from 186 users
◎豆瓣链接 https://movie.douban.com/subject/26893499/
◎片  长 180分钟
◎导  演 
◎编  剧 
◎主  演 

◎简  介

  李尔王(Romayne Andrews 饰)年事已高,他决定将广袤的国土分给自己的三个女儿科迪莉亚(Natalie Simpson 饰)、格纳利尔(Nia Gwynne 饰)和里根(Oliver Johnstone 饰)。李尔王让三个女儿说出各自心中对父王的爱戴,格纳利尔和里根极尽花言巧语之所能,得到了李尔王的赞赏,小女儿科迪莉亚质朴而诚实,反而遭到了无情的驱逐。                                    
      失去了家园的科迪莉亚成为了法国的王后,而得到了父亲大片疆土的大女儿和二女儿则将李尔王赶出了家门。直到流落荒野无处可去,李尔王才明白自己犯了天大的错误,他一边责怪自己的愚昧,一边心痛科迪莉亚的遭遇。得知了李尔王的境遇,科迪莉亚组织了军队准备向老家进攻,不幸的是,军队遭遇惨败,科迪莉亚也遭到了逮捕。最终,科迪莉亚被处死,年迈的李尔王在痛苦中亦追随而去。



Video
ID           : 1
Format       : AVC
Format/Info      : Advanced Video Codec
Format profile       : [email protected]
Format settings      : CABAC / 4 Ref Frames
Format settings, CABAC       : Yes
Format settings, Reference frames    : 4 frames
Codec ID         : V_MPEG4/ISO/AVC
Duration         : 3 h 1 min
Bit rate mode        : Constant
Bit rate         : 10 000 kb/s
Width        : 1 920 pixels
Height       : 1 080 pixels
Display aspect ratio     : 16:9
Frame rate mode      : Constant
Frame rate       : 25.000 FPS
Color space      : YUV
Chroma subsampling       : 4:2:0
Bit depth        : 8 bits
Scan type        : Progressive
Bits/(Pixel*Frame)       : 0.193
Stream size      : 12.2 GiB (94%)
Default          : Yes
Forced       : No
Color range      : Limited
Color primaries      : BT.709
Transfer characteristics     : BT.709
Matrix coefficients      : BT.709

Audio
ID           : 2
Format       : E-AC-3
Format/Info      : Enhanced AC-3
Commercial name      : Dolby Digital Plus
Codec ID         : A_EAC3
Duration         : 3 h 1 min
Bit rate mode        : Constant
Bit rate         : 640 kb/s
Channel(s)       : 6 channels
Channel layout       : L R C LFE Ls Rs
Sampling rate        : 48.0 kHz
Frame rate       : 31.250 FPS (1536 SPF)
Compression mode     : Lossy
Stream size      : 831 MiB (6%)
Language         : English
Service kind         : Complete Main
Default          : Yes
Forced       : No

Text
ID           : 3
Format       : UTF-8
Codec ID         : S_TEXT/UTF8
Codec ID/Info        : UTF-8 Plain Text
Duration         : 2 h 56 min
Bit rate         : 78 b/s
Count of elements        : 1636
Stream size      : 101 KiB (0%)
Title        : SDH
Language         : English
Default          : No
Forced       : No



悠悠MP4_MP4电影下载_李尔王 Royal.Shakespeare.Company.King.Lear.2016.1080p.AMZN.WEBRip.DDP5.1.x264-ECLiPSE 13.04 GB
悠悠MP4_MP4电影下载_李尔王 Royal.Shakespeare.Company.King.Lear.2016.1080p.AMZN.WEBRip.DDP5.1.x264-ECLiPSE 13.04 GB
悠悠MP4_MP4电影下载_李尔王 Royal.Shakespeare.Company.King.Lear.2016.1080p.AMZN.WEBRip.DDP5.1.x264-ECLiPSE 13.04 GB

磁力链接

magnet:?xt=urn:btih:0cd4be3bd75d177b0942cf4555aeb6c402cf062e

上传的附件:
最新回复 (0)
返回
本站所有资源均收集自互联网,没有提供影片资源存储, 也未参与录制、上传,若本站收录的资源无意侵犯了您的权益, 请联系邮箱:gogoimgs#gmail.com(#[email protected])